<?xml version="1.0" standalone="no"?>
<!DOCTYPE svg PUBLIC "-//W3C//DTD SVG 1.1//EN" "http://www.w3.org/Graphics/SVG/1.1/DTD/svg11.dtd" >
<svg xmlns="http://www.w3.org/2000/svg">
<metadata></metadata>
<defs>
<font id="theacademy_boldbold" horiz-adv-x="1019" >
<font-face units-per-em="2048" ascent="1434" descent="-614" />
<missing-glyph horiz-adv-x="534" />
<glyph horiz-adv-x="0" />
<glyph horiz-adv-x="682" />
<glyph unicode=" "  horiz-adv-x="534" />
<glyph unicode="&#x09;" horiz-adv-x="534" />
<glyph unicode="&#xa0;" horiz-adv-x="534" />
<glyph unicode="!" horiz-adv-x="659" d="M170 1346h350l-41 -902h-274zM193 0v301h301v-301h-301z" />
<glyph unicode="&#x22;" horiz-adv-x="897" d="M92 1116v262h303v-258l-67 -282h-164zM502 1116v262h303v-258l-68 -282h-164z" />
<glyph unicode="#" horiz-adv-x="1306" d="M23 420l38 194h271l35 177h-271l39 194h268l125 637h220l-123 -637h155l125 637h219l-123 -637h279l-45 -194h-272l-35 -177h278l-45 -194h-270l-123 -619h-217l121 619h-158l-123 -619h-217l121 619h-272zM551 614h158l34 177h-157z" />
<glyph unicode="$" horiz-adv-x="1122" d="M111 352l147 123q25 -29 59 -55q29 -23 71 -46.5t99 -37.5v266q-57 18 -113.5 42t-101.5 59.5t-73.5 87t-30.5 122.5q-4 70 23.5 120t72.5 83t103.5 51.5t119.5 26.5v166h175v-166q84 -12 146 -44t105 -65q51 -39 86 -84l-143 -133q-23 29 -51 56q-25 23 -60.5 46 t-82.5 40v-252q59 -20 118.5 -45t107.5 -61t77.5 -87t29.5 -125q0 -53 -24.5 -100t-68.5 -85t-105.5 -64.5t-134.5 -34.5v-174h-175v174q-104 10 -175.5 42.5t-116.5 67.5q-53 39 -84 86zM395 924q2 -35 26.5 -59.5t65.5 -45.5v199q-41 -10 -66.5 -31.5t-25.5 -62.5z M662 332q43 12 68.5 40.5t21.5 76.5q-2 33 -26 55t-64 39v-211z" />
<glyph unicode="%" horiz-adv-x="1333" d="M104 1077q0 59 23 112.5t60.5 93.5t90 62.5t111.5 22.5q63 0 125 -29q47 -12 100 -20q45 -8 98.5 -14.5t106.5 -6.5t86 12.5t53 28.5q23 18 35 41l183 -96l-832 -1339l-229 118l733 1133q-39 -12 -76 -16q-31 -4 -65.5 -1t-57.5 21q27 -59 27 -123q0 -59 -22.5 -112.5 t-61.5 -93.5t-91 -62.5t-112 -22.5q-59 0 -111.5 22.5t-90 62.5t-60.5 93.5t-23 112.5zM303 1077q0 -68 23.5 -115t58.5 -47t59.5 47.5t24.5 114.5q0 68 -24.5 115t-59.5 47t-58.5 -47t-23.5 -115zM655 256q0 59 22.5 112.5t60.5 93.5t90.5 62.5t111.5 22.5t111.5 -22.5 t91.5 -62.5t61.5 -93.5t22.5 -112.5t-22.5 -112.5t-61.5 -93.5t-91.5 -62.5t-111.5 -22.5t-111.5 22.5t-90.5 62.5t-60.5 93.5t-22.5 112.5zM854 256q0 -68 23.5 -115t58.5 -47t59.5 47t24.5 115t-24.5 115t-59.5 47t-58.5 -47t-23.5 -115z" />
<glyph unicode="&#x26;" horiz-adv-x="1206" d="M145 293q0 82 33 139t74 94q47 43 108 70q-35 37 -61 78q-23 35 -42 79t-19 91q0 139 95 223t267 82q61 -2 117.5 -23.5t98.5 -61.5t66.5 -96.5t24.5 -123.5q0 -70 -31.5 -124t-68.5 -93q-45 -45 -100 -80l118 -137q10 25 16.5 51t8.5 49q2 25 0 49l235 -43 q-8 -72 -24.5 -130t-34.5 -99q-23 -49 -45 -84l92 -119l-180 -143l-90 118q-41 -25 -88 -43q-41 -16 -90.5 -29.5t-102.5 -13.5q-172 0 -274.5 78t-102.5 242zM395 309q0 -45 20.5 -74.5t55.5 -42t80 -4t92 40.5l-164 226q-25 -10 -43 -31q-16 -16 -28.5 -44t-12.5 -71z M465 850q0 -29 15.5 -57.5t33.5 -51.5q23 -27 49 -53q35 16 62 39q23 20 43 51t20 74q0 41 -29.5 75t-80.5 34q-53 0 -83 -36t-30 -75z" />
<glyph unicode="'" horiz-adv-x="491" d="M98 1114v262h303v-258l-67 -282h-164z" />
<glyph unicode="(" horiz-adv-x="923" d="M164 698q0 104 17.5 191.5t45 161t63.5 132t72 103.5q88 106 201 170l152 -176q-76 -51 -135 -133q-51 -70 -93.5 -177.5t-42.5 -260.5q0 -154 41 -274t90 -206q57 -98 132 -176l-146 -157q-113 78 -199 192q-37 49 -72.5 111.5t-63 138.5t-45 166t-17.5 194z" />
<glyph unicode=")" horiz-adv-x="925" d="M147 1280l152 176q111 -63 199 -170q37 -45 73.5 -103.5t64.5 -132t45 -160.5t17 -192q0 -104 -17 -194t-45 -166t-63.5 -138.5t-72.5 -111.5q-88 -115 -199 -192l-145 157q74 78 131 176q49 86 90 206t41 274t-42 261t-93 177q-59 82 -136 133z" />
<glyph unicode="*" horiz-adv-x="1153" d="M178 1139l205 -29l-143 164l200 127l129 -227l119 227l207 -139l-147 -164l217 24v-225l-222 45l138 -158l-199 -133l-109 213l-110 -211l-199 129l125 160l-209 -37z" />
<glyph unicode="+" horiz-adv-x="1185" d="M25 641v195h460v448h211v-448h461v-195h-461v-461h-211v461h-460z" />
<glyph unicode="," horiz-adv-x="628" d="M119 2q49 -4 84 31q29 29 46 98.5t1 208.5h319q6 -70 0 -143.5t-40.5 -142t-104.5 -125t-186 -93.5z" />
<glyph unicode="-" horiz-adv-x="1132" d="M272 442v197h602v-197h-602z" />
<glyph unicode="." horiz-adv-x="540" d="M141 0v340h326v-340h-326z" />
<glyph unicode="/" horiz-adv-x="1155" d="M150 -49l598 1571h245l-598 -1571h-245z" />
<glyph unicode="0" horiz-adv-x="1146" d="M121 674q0 154 16.5 279.5t64.5 217t136 140.5t229 49q154 0 243 -55.5t134 -145.5t57.5 -204.5t12.5 -235.5q0 -180 -17.5 -317.5t-66.5 -230.5t-139.5 -141t-237.5 -48q-131 0 -215 46t-132 135t-66.5 217t-18.5 294zM395 672q0 -242 35 -353.5t131 -111.5 q55 0 91 27.5t55.5 86t27.5 149.5t8 218q0 117 -6 201t-24.5 139t-53 81t-92.5 26q-53 0 -85.5 -25t-52 -79t-27 -142t-7.5 -217z" />
<glyph unicode="1" horiz-adv-x="1146" d="M119 0v223h332v830l-222 -78l-86 221l582 184l-4 -1157h307v-223h-909z" />
<glyph unicode="2" horiz-adv-x="1146" d="M121 920q20 119 64 202.5t106.5 137t143.5 78t175 24.5q113 0 192 -34t129 -87t72.5 -119.5t22.5 -130.5q0 -66 -18.5 -119t-45 -96t-56 -77.5t-50.5 -59.5q-10 -12 -32.5 -38t-52.5 -57.5t-64.5 -67.5t-67.5 -73q-80 -84 -172 -186h557v-217h-891v186q135 160 248 289 q47 55 94 110.5t86 101.5t66.5 80t38.5 46q35 51 57 90t22 84q0 23 -6 48.5t-21.5 47t-41 36t-66.5 14.5q-70 0 -111.5 -39t-66.5 -86q-29 -55 -41 -125z" />
<glyph unicode="3" horiz-adv-x="1146" d="M121 1137v206h887v-188l-346 -291q193 -23 277.5 -118t84.5 -248q0 -100 -39 -179t-106.5 -138.5t-155.5 -99.5t-187.5 -63.5t-202 -32t-196.5 -1.5v227q166 -12 282 10.5t188.5 66.5t104 104.5t31.5 123.5q0 61 -38.5 96t-103 46.5t-146.5 3t-170 -30.5v192l372 314 h-536z" />
<glyph unicode="4" horiz-adv-x="1146" d="M111 309l221 1057l276 -47l-172 -787h213v605h277v-605h110v-223h-110v-309h-277v309h-538z" />
<glyph unicode="5" horiz-adv-x="1146" d="M121 -16v227q166 -12 281.5 5t187.5 59t103.5 103.5t31.5 137.5q0 61 -29.5 99t-82 49.5t-122 -7t-149.5 -67.5l-178 39v717h831v-207h-555v-279q16 6 39 14q16 6 40 11.5t50 7.5q98 6 178 -16.5t138.5 -72.5t90.5 -127t32 -179q0 -152 -79 -256.5t-205 -167t-284.5 -85 t-318.5 -5.5z" />
<glyph unicode="6" horiz-adv-x="1146" d="M121 662q0 346 122 521t332 175q94 0 169 -25.5t128 -56.5q61 -37 107 -80l-135 -178q-37 31 -76 55q-35 23 -79 40t-91 17q-37 0 -71.5 -20t-63.5 -58t-46.5 -94.5t-17.5 -130.5q25 18 60 33q29 12 69.5 23.5t92.5 11.5q104 0 180 -33t124 -91t70.5 -136t22.5 -166 q0 -102 -30 -190.5t-87 -155t-143 -104t-197 -37.5q-225 0 -332.5 167.5t-107.5 512.5zM403 584q0 -63 5.5 -130t21.5 -120t50 -88t89 -35q72 0 120 58.5t48 168.5q0 111 -33.5 169.5t-123.5 58.5q-37 0 -69 -12.5t-56 -28.5q-29 -18 -52 -41z" />
<glyph unicode="7" horiz-adv-x="1146" d="M150 1139v207h931l-680 -1395l-245 102l530 1086h-536z" />
<glyph unicode="8" horiz-adv-x="1146" d="M113 369q0 80 38.5 140t86.5 101q53 47 124 82q-57 27 -102 72q-39 39 -69.5 101.5t-30.5 158.5q0 63 31.5 123.5t87 108t130 76t160.5 28.5q82 0 156 -26.5t131 -75t91 -117t34 -152.5q0 -86 -33 -140t-71 -89q-45 -39 -103 -64q70 -31 125 -75q47 -41 87 -101.5 t40 -150.5t-38 -161t-101.5 -122t-148.5 -77.5t-179 -26.5t-176 30.5t-141.5 82.5t-94 123t-34.5 151zM373 348q0 -61 52 -110.5t138 -49.5q47 0 84 15.5t62.5 39t39 52.5t13.5 57q0 53 -31 94t-67 70q-43 33 -97 55q-55 -18 -98 -49q-37 -27 -66.5 -69.5t-29.5 -104.5z M418 1004q0 -49 23.5 -87t52.5 -63q33 -31 75 -51q41 16 74 45q29 25 52.5 63.5t23.5 96.5q0 55 -40 100t-108 45q-37 0 -65.5 -14.5t-48 -36t-29.5 -48t-10 -50.5z" />
<glyph unicode="9" horiz-adv-x="1146" d="M125 879q0 100 29.5 188t88 152.5t143.5 102.5t198 38q223 0 331.5 -165t108.5 -511q0 -344 -122 -520t-335 -176q-96 0 -169.5 25.5t-127.5 56.5q-61 37 -106 82l135 178q37 -33 76 -58q35 -23 79 -39t91 -16q37 0 72.5 19.5t64.5 58.5t46 95t17 130q-27 -20 -61 -35 q-29 -12 -70 -22t-92 -10q-104 0 -180 33.5t-124 92t-70.5 135.5t-22.5 165zM408 909q0 -111 32.5 -169t122.5 -58q35 0 68 11.5t57 27.5q28 18 51 41q0 63 -5 129.5t-21.5 120t-50 88.5t-89.5 35q-72 0 -118.5 -57.5t-46.5 -168.5z" />
<glyph unicode=":" horiz-adv-x="696" d="M186 0v340h326v-340h-326zM186 561v332h326v-332h-326z" />
<glyph unicode=";" horiz-adv-x="696" d="M76 2q49 -4 84 31q29 29 47 98.5t2 208.5h319q6 -70 0 -143.5t-40.5 -142t-104.5 -125t-186 -93.5zM205 561v332h325v-332h-325z" />
<glyph unicode="&#x3c;" horiz-adv-x="1177" d="M88 733l875 768l124 -158l-698 -610l701 -612l-132 -154z" />
<glyph unicode="=" horiz-adv-x="1165" d="M16 463v194h1133v-194h-1133zM16 807v194h1133v-194h-1133z" />
<glyph unicode="&#x3e;" horiz-adv-x="1177" d="M86 121l700 612l-698 610l127 158l872 -768l-870 -766z" />
<glyph unicode="?" horiz-adv-x="1155" d="M127 940q18 119 62 203t107.5 137t144.5 77.5t173 24.5q113 0 192 -33.5t129 -87t72.5 -120t22.5 -129.5q0 -76 -23.5 -133.5t-58.5 -101.5t-74.5 -82t-74.5 -75.5t-58.5 -79.5t-23.5 -98h-277q0 84 23.5 147.5t57.5 113t75 88t75 73.5t57.5 69t23.5 75q0 23 -6.5 48 t-21.5 46.5t-42 36t-68 14.5q-70 0 -111.5 -39t-66.5 -86q-29 -55 -41 -125zM420 0v301h325v-301h-325z" />
<glyph unicode="@" horiz-adv-x="1607" d="M164 707q12 127 63.5 244.5t140.5 208.5t214 145.5t282 54.5q172 0 291 -53.5t189.5 -139.5t95 -194.5t10.5 -218.5q-14 -111 -51 -189t-85 -128t-103.5 -72.5t-106.5 -22.5t-82 15.5t-47 33.5q-20 23 -29 49q-18 -27 -49 -49q-27 -18 -66.5 -33.5t-93.5 -15.5 q-78 0 -131 34t-80.5 89t-29.5 128t22 150q27 86 75 139.5t104.5 84t114.5 42t106 11.5q47 0 82.5 -5t60.5 -11q29 -8 49 -19l-53 -459q35 -16 69 2q29 16 58.5 65.5t48.5 160.5q12 78 2 153.5t-52 134t-119 94t-198 35.5q-111 0 -195.5 -35.5t-144 -97t-94.5 -145.5 t-49 -180q-18 -121 2.5 -218.5t72.5 -166t135 -106.5t189 -40q80 -2 154 9.5t133 25.5q68 16 127 39l57 -182q-61 -25 -135 -45q-66 -16 -152.5 -30.5t-193.5 -16.5q-154 -2 -273.5 54t-198.5 155.5t-114.5 231.5t-21.5 284zM668 583.5q4 -30.5 15 -49t28.5 -25.5t36.5 -7 q39 0 69.5 16.5t54 56t40 111t26.5 182.5q-47 0 -90 -8t-78 -30.5t-60.5 -63.5t-37.5 -107q-8 -45 -4 -75.5z" />
<glyph unicode="A" horiz-adv-x="1048" d="M18 27l367 1319h274l369 -1319l-254 -68l-92 399h-320l-94 -399zM403 543h240l-119 547z" />
<glyph unicode="B" horiz-adv-x="1110" d="M94 0v223h111v914h-111v209h389q72 0 153 -8.5t149.5 -42t113.5 -104.5t45 -194q0 -72 -22.5 -120t-51.5 -76q-33 -35 -73 -56q57 -20 104 -59q41 -35 74 -96.5t33 -163.5t-33 -181t-91.5 -133.5t-138 -83t-174.5 -28.5h-477zM463 221h129q23 0 49.5 9.5t48 33t35.5 64.5 t14 104t-18.5 102t-45 59.5t-53 27t-44.5 6.5h-115v-406zM463 825h106q18 0 40 7.5t40.5 24.5t30.5 48t12 80t-15 79t-37 45t-44.5 20.5t-36.5 5.5h-96v-310z" />
<glyph unicode="C" horiz-adv-x="1110" d="M104 686q0 164 35 290t97.5 212t149.5 130t192 44q123 0 203.5 -45t129.5 -98q57 -63 90 -142l-237 -125q-16 51 -39 90q-20 35 -51 63t-78 28q-33 0 -70 -14.5t-67.5 -61.5t-51 -136.5t-20.5 -236.5t17.5 -239.5t45 -143.5t61.5 -69.5t67 -18.5q51 0 93 29.5t70 64.5 q35 41 62 94l219 -120q-41 -84 -104 -150q-53 -57 -138.5 -103t-201.5 -46q-117 0 -206 49t-148.5 140t-89.5 221t-30 294z" />
<glyph unicode="D" horiz-adv-x="1122" d="M94 0v223h111v914h-111v209h443q123 0 214 -37t150.5 -116t89 -203t29.5 -298q0 -68 -4 -145.5t-19.5 -154.5t-45 -147.5t-79 -124.5t-123 -87t-178.5 -33h-477zM463 221h102q23 0 53.5 15.5t57 64.5t45 143.5t18.5 253.5q0 154 -22.5 242t-53 132t-62.5 55.5t-50 11.5 h-88v-918z" />
<glyph unicode="E" horiz-adv-x="1077" d="M184 0v1346h789v-209h-514v-318h430v-225h-430v-371h514v-223h-789z" />
<glyph unicode="F" horiz-adv-x="1056" d="M184 0v1346h789v-209h-516v-318h432v-225h-432l2 -594h-275z" />
<glyph unicode="G" horiz-adv-x="1153" d="M100 688q0 164 34 290t96.5 211t149.5 129t193 44q123 0 204 -45t130 -98q57 -63 90 -142l-239 -125q-14 51 -37 90q-20 35 -52 63t-79 28q-33 0 -70 -14.5t-67.5 -61.5t-51 -136.5t-20.5 -236.5t17.5 -239.5t45 -143.5t62.5 -69.5t67 -18.5q35 0 65 5t54 20v290h-190 v224h467v-627q-25 -25 -61 -49.5t-85 -46t-111.5 -34.5t-138.5 -13q-117 0 -205.5 49t-148 140t-89.5 222t-30 295z" />
<glyph unicode="H" horiz-adv-x="1241" d="M205 0v1346h274v-525h281v525h274v-1346h-274v600h-281v-600h-274z" />
<glyph unicode="I" horiz-adv-x="817" d="M84 0v223h186v914h-186v209h645v-209h-186v-914h186v-223h-645z" />
<glyph unicode="J" horiz-adv-x="1038" d="M51 379v180h275v-164q0 -37 4 -69.5t18 -58t40 -40t69 -14.5q68 0 95.5 57.5t27.5 147.5v928h274v-908q0 -221 -109.5 -338.5t-298.5 -117.5q-94 0 -167.5 30.5t-124 84t-77 126t-26.5 156.5z" />
<glyph unicode="K" horiz-adv-x="1120" d="M184 0v1346h275v-461l303 479l209 -141l-346 -494l452 -635l-239 -135l-379 602v-561h-275z" />
<glyph unicode="L" horiz-adv-x="1032" d="M184 0v1346h275v-1123h551v-223h-826z" />
<glyph unicode="M" horiz-adv-x="1310" d="M182 0l43 1346h287l129 -494h16l138 494h290l43 -1346h-274l-6 848h-19l-178 -584l-176 582h-18v-846h-275z" />
<glyph unicode="N" horiz-adv-x="1206" d="M182 0v1346h291l285 -809h14l-24 809h274v-1346h-274h-17l-287 823h-14l25 -823h-273z" />
<glyph unicode="O" horiz-adv-x="1093" d="M100 676q0 190 35 321t95.5 211t142.5 116t174 36t173 -32t141.5 -109.5t95 -209.5t34.5 -333q0 -197 -34.5 -329t-95 -214t-141.5 -116.5t-173 -34.5t-174 34.5t-142.5 116.5t-95.5 214t-35 329zM381 676q0 -129 13.5 -218t36 -142.5t52 -77t64.5 -23.5q39 0 70.5 23.5 t52 77t32 142.5t11.5 218q0 133 -8.5 220t-28 139t-51 73.5t-78.5 21.5q-39 0 -70 -23.5t-52.5 -77.5t-32.5 -141t-11 -212z" />
<glyph unicode="P" horiz-adv-x="1091" d="M182 0v1346h365q84 0 164 -21.5t141 -68t99 -120t38 -178.5q0 -104 -34.5 -183t-92 -131t-128 -77.5t-142.5 -25.5h-137v-541h-273zM455 764h137q20 0 45 9t44 29.5t32.5 54.5t13.5 83q0 98 -42 139t-101 41h-129v-356z" />
<glyph unicode="Q" horiz-adv-x="1107" d="M115 676q0 190 34.5 321t95 212t141.5 117t173 36t174 -32t142.5 -110.5t95.5 -210.5t35 -333q0 -174 -28 -300t-77 -208l82 -96l-143 -127l-74 86q-47 -27 -98.5 -38t-108.5 -11q-92 0 -173 34.5t-141.5 116.5t-95 214t-34.5 329zM393 676q0 -129 13.5 -218t36 -142.5 t52 -77t64.5 -23.5q27 0 45 8l-117 135l148 123l72 -84q18 104 18 279q0 133 -8 220t-27.5 139t-51.5 73.5t-79 21.5q-39 0 -69.5 -23.5t-52 -77.5t-33 -141t-11.5 -212z" />
<glyph unicode="R" horiz-adv-x="1134" d="M182 0v1346h365q84 0 164 -21.5t141 -68t99 -120t38 -178.5q0 -152 -69.5 -247t-167.5 -138l301 -507l-230 -113l-311 588h-57v-541h-273zM455 764h137q20 0 43.5 9t44 29.5t34 54.5t13.5 83q0 98 -42 139t-101 41h-129v-356z" />
<glyph unicode="S" horiz-adv-x="1069" d="M100 367l265 36q8 -55 28 -96q16 -35 48 -64.5t85 -29.5q61 0 95 45t34 117q0 61 -36.5 101t-92 72t-120 64.5t-122 78.5t-97.5 116t-44 178v24q0 95 29 159q33 72 89 115.5t125.5 61t139.5 17.5q53 0 113.5 -15.5t117 -56.5t100.5 -115.5t65 -193.5l-271 -37 q-2 53 -16 94q-12 35 -37 65t-72 30q-53 0 -80.5 -28t-27.5 -104q0 -63 37 -102t91 -71.5t118.5 -65.5t122 -83t97.5 -125t48 -189v-19q0 -69 -26 -131q-30 -70 -85 -122t-133 -81.5t-166 -29.5q-76 0 -134 16t-102 44t-75 61.5t-51 70.5q-49 84 -60 193z" />
<glyph unicode="T" horiz-adv-x="808" d="M14 1137v209h779v-209h-252v-1137h-275v1137h-252z" />
<glyph unicode="U" horiz-adv-x="1165" d="M182 377v969h275v-928q0 -37 2 -73t14 -65.5t37 -48t70 -18.5t70.5 15.5t38.5 43t16.5 65.5t3.5 81v928h272v-969q0 -72 -21.5 -141.5t-69.5 -127t-124 -92t-186 -34.5q-111 0 -187 32.5t-123 88t-67.5 127t-20.5 147.5z" />
<glyph unicode="V" horiz-adv-x="1140" d="M68 1325l276 53l227 -901h13l211 899l276 -53l-409 -1323h-185z" />
<glyph unicode="W" horiz-adv-x="1226" d="M113 1325l276 53l55 -690h21l70 404h153l74 -404h18l56 690l276 -53l-154 -1325h-184l-153 584h-19l-151 -584h-185z" />
<glyph unicode="X" horiz-adv-x="1140" d="M63 57l361 674l-289 526l248 115l182 -424h15l186 424l252 -112l-295 -529l358 -674l-245 -106l-254 551h-17l-252 -549z" />
<glyph unicode="Y" horiz-adv-x="1089" d="M43 1323l276 51l228 -590l225 590l275 -53l-359 -789v-532h-276v530z" />
<glyph unicode="Z" horiz-adv-x="1120" d="M47 0l571 1137h-481v209h895l-571 -1123h559v-223h-973z" />
<glyph unicode="[" horiz-adv-x="778" d="M47 -76v1458h610v-227h-335v-1001h335v-230h-610z" />
<glyph unicode="\" horiz-adv-x="1196" d="M152 1518h243l645 -1569h-243z" />
<glyph unicode="]" horiz-adv-x="788" d="M123 -76v230h338v1001h-338v227h610v-1458h-610z" />
<glyph unicode="^" d="M20 725l394 643h196l387 -643h-252l-233 405l-240 -405h-252z" />
<glyph unicode="_" horiz-adv-x="1343" d="M0 -86h1343v-188h-1343v188z" />
<glyph unicode="`" d="M236 1208l131 213l413 -207l-90 -153z" />
<glyph unicode="a" horiz-adv-x="1056" d="M84 303q0 90 40 152.5t94 101.5t110.5 59.5t91.5 26.5q72 16 126 19.5t72 5.5q3 23 3 44q0 28 -5 52q-8 35 -33.5 65.5t-78.5 30.5q-55 0 -110.5 -18.5t-100.5 -40.5q-53 -25 -103 -58l-86 207q53 37 117 68q53 25 126 46t157 21q182 0 275 -98t93 -274v-445 q0 -68 5.5 -117t13.5 -83q8 -39 18 -68h-256l-26 106q-27 -35 -62 -63q-31 -25 -73.5 -45.5t-102.5 -22.5h-11q-48 -1 -96 15q-54 18 -98.5 57t-72 101.5t-27.5 154.5zM322 299q0 -37 10 -59.5t24.5 -33.5t32 -15.5t33.5 -4.5q53 0 89 19.5t60 44.5q27 29 47 65v172 q-80 0 -137 -15t-92 -40.5t-51 -60.5t-16 -72z" />
<glyph unicode="b" horiz-adv-x="1138" d="M174 0v1411h250v-436q18 12 45 28.5t55.5 33t58 27.5t52.5 15q18 3 37 3q40 0 86 -12q66 -17 123 -75.5t95 -167t38 -282.5t-39 -288t-97 -179q-60 -66 -130 -88q-52 -17 -100 -17q-17 0 -34 2q-23 2 -49 17.5t-53 35t-49.5 42t-38.5 39.5v-109h-250zM424 311 q33 -33 65 -55q29 -23 60 -39t57 -16q37 0 65.5 29.5t48 76.5t30 108.5t10.5 123.5q0 63 -10.5 120.5t-30 102.5t-46 71.5t-57.5 26.5q-33 0 -66.5 -14.5t-62.5 -30.5q-33 -20 -63 -43v-461z" />
<glyph unicode="c" horiz-adv-x="1038" d="M106 524q0 170 55.5 279.5t135.5 172t168 84.5q81 21 141 21h10q68 -4 122.5 -18t92.5 -31q45 -18 78 -41l-90 -213q-23 20 -53 37q-27 14 -62.5 26.5t-80.5 16.5q-10 1 -19 1q-40 1 -78 -13q-48 -16 -82 -55t-55.5 -102.5t-21.5 -153.5q0 -92 19.5 -156t51 -105 t74.5 -59t92 -18q53 0 95 12t73 29q37 18 64 43l88 -201q-41 -27 -93 -49q-43 -18 -103 -36t-134 -22q-11 -1 -22 -1q-61 0 -133 18q-85 22 -158.5 83.5t-124 171t-50.5 279.5z" />
<glyph unicode="d" horiz-adv-x="1130" d="M106 545q0 174 37 282.5t95 166.5q56 59 122 76q45 12 87 12q20 0 38 -3q23 -4 51.5 -15t58.5 -27.5t55.5 -33t43.5 -28.5v436h252v-1411h-252v109q-16 -16 -38.5 -39t-48 -42.5t-52.5 -35t-51 -17.5q-17 -2 -34 -2q-48 1 -99 17q-70 22 -128.5 87.5t-97.5 179.5t-39 288 zM360 539q0 -61 10.5 -123t30 -109t48 -76.5t65.5 -29.5q25 0 55.5 16t59.5 39q33 23 65 55v461q-31 23 -63 43q-29 16 -61.5 30.5t-65.5 14.5t-59.5 -26.5t-45 -71.5t-29 -102.5t-10.5 -120.5z" />
<glyph unicode="e" horiz-adv-x="1067" d="M80 524q0 170 47 278.5t115.5 170t147.5 85t142 23.5q117 0 198 -44t131 -123q49 -80 69 -194q15 -87 15 -188q0 -31 -1 -63h-602q14 -145 80.5 -208.5t155.5 -63.5q59 0 107 12t83 29q39 18 72 43l88 -201q-47 -31 -103 -53q-47 -20 -113.5 -37t-144.5 -17 q-70 0 -154.5 22.5t-158.5 83t-124 168t-50 277.5zM346 655h326q1 15 1 30q0 44 -9 83q-10 41 -41 77t-95 36q-80 0 -131 -52.5t-51 -173.5z" />
<glyph unicode="f" horiz-adv-x="806" d="M41 868v185h174v41q0 63 15.5 122.5t51 104.5t93 72.5t141.5 27.5q53 0 103.5 -10t89.5 -20q45 -14 86 -31l-52 -172q-31 14 -63 26q-29 10 -64.5 18.5t-70.5 8.5t-57.5 -31.5t-22.5 -103.5v-53h244v-185h-244v-868h-250v868h-174z" />
<glyph unicode="g" horiz-adv-x="1107" d="M123 -111q0 57 19.5 95.5t41.5 60.5q27 25 62 39q-27 8 -49 29q-18 16 -34 45.5t-16 77.5q0 37 12.5 68.5t30 58t37 47t33.5 32.5q-59 51 -94 123t-35 156q0 76 28.5 142.5t80 115.5t118 77.5t144.5 28.5q96 0 172 -38l319 10v-228l-137 5q16 -55 16 -113 q0 -76 -28.5 -143.5t-79.5 -117.5t-118.5 -79t-143.5 -29q-12 0 -24.5 1t-22.5 3q-23 -12 -52.5 -33.5t-29.5 -39.5q0 -25 58 -26h44q50 0 123 1h28q93 0 160 -12q78 -13 127.5 -42.5t72 -79.5t22.5 -122t-31 -144.5t-93.5 -131t-156.5 -94t-219 -35.5q-84 0 -154.5 24.5 t-122 64.5t-80 93t-28.5 110zM346 721q0 -74 45 -125t111 -51t111.5 51t45.5 125q0 72 -46 123t-111 51q-33 0 -60.5 -13.5t-49 -37t-34 -55t-12.5 -68.5zM367 -100q0 -39 34.5 -71t124.5 -32q45 0 86 12.5t72 33t49.5 49t18.5 61.5q0 37 -13.5 64.5t-19.5 33.5q-2 2 -36 3 t-77 1t-82 -2t-53 -4q-31 -23 -53 -45q-20 -20 -35.5 -48t-15.5 -56z" />
<glyph unicode="h" horiz-adv-x="1130" d="M170 0v1411h250v-424q31 25 91 57.5t138 38.5q23 2 44 2q121 0 187 -78q78 -92 78 -302v-705h-253v715q0 35 -4.5 63.5t-14.5 49t-31.5 28.5t-54.5 2q-29 -6 -56.5 -19.5t-51 -30.5t-43 -33.5t-29.5 -26.5v-748h-250z" />
<glyph unicode="i" horiz-adv-x="663" d="M37 856v205h434v-1061h-250v856h-184zM211 1280q0 57 40 97t99 40t99 -40t40 -97q0 -59 -39.5 -99t-99.5 -40q-59 0 -99 40t-40 99z" />
<glyph unicode="j" horiz-adv-x="638" d="M-109 -344l54 209q29 -16 63 -29q29 -10 65 -18t70 -8q35 0 56.5 31.5t21.5 103.5v911h-184v205h436v-1139q0 -63 -15.5 -122.5t-51 -104.5t-94 -73t-142.5 -28q-53 0 -103.5 9.5t-89.5 21.5q-45 12 -86 31zM213 1280q0 57 40 97t99 40t99.5 -40t40.5 -97q0 -59 -40 -99 t-100 -40q-59 0 -99 40t-40 99z" />
<glyph unicode="k" horiz-adv-x="1130" d="M180 0v1411h250v-666l307 316h330l-444 -447l485 -614h-326l-352 455v-455h-250z" />
<glyph unicode="l" horiz-adv-x="669" d="M188 285v1126h250v-1137q0 -18 4 -33.5t16.5 -23.5t35 -7t59.5 19l88 -176q-27 -20 -59 -35q-29 -14 -69 -24t-87 -10q-117 0 -177.5 71.5t-60.5 229.5z" />
<glyph unicode="m" horiz-adv-x="1695" d="M190 0v1061h250v-94q14 14 38 33.5t53.5 37t64.5 29.5t74 16q22 2 42 2q147 0 214 -116q12 8 38.5 26.5t63.5 37t81 32.5t91 18q23 2 44 2q122 0 188 -78q78 -92 77 -302v-705h-252v715q0 35 -4 63.5t-15 49t-32.5 28.5t-54.5 2q-27 -6 -53.5 -18.5t-49 -28.5t-41 -31.5 t-30.5 -27.5q0 -10 1 -22.5t1 -24.5v-705h-254v715q0 35 -4 63.5t-14.5 49t-32 28.5t-53.5 2q-29 -6 -56.5 -19.5t-51.5 -30.5t-43 -33.5t-30 -26.5v-748h-250z" />
<glyph unicode="n" horiz-adv-x="1155" d="M182 0v1061h252v-94q14 14 38 33.5t52.5 37t63.5 29.5t74 16q23 2 44 2q122 0 188 -78q78 -92 77 -302v-705h-252v715q0 35 -4 63.5t-15.5 49t-33 28.5t-54.5 2q-29 -6 -56.5 -19.5t-51 -30.5t-42 -33.5t-28.5 -26.5v-748h-252z" />
<glyph unicode="o" horiz-adv-x="1099" d="M100 528q0 117 31 218.5t88 176t141 118.5t191 44q111 0 194.5 -44t140 -118.5t85 -176t28.5 -218.5q0 -115 -32.5 -216t-92 -177t-142.5 -120t-181 -44q-106 0 -189 44t-141.5 120t-89.5 177.5t-31 215.5zM352 528q0 -70 13.5 -131t39 -107t62.5 -73t84 -27q43 0 80 27 t62.5 73t40 107.5t14.5 130.5q0 70 -12.5 132.5t-37 108.5t-61.5 72.5t-86 26.5q-47 0 -84 -26.5t-62.5 -72.5t-39 -108.5t-13.5 -132.5z" />
<glyph unicode="p" horiz-adv-x="1124" d="M182 -408v1469h250v-86q18 12 45 28.5t55.5 33t58 27.5t52.5 15q18 3 38 3q40 0 86 -12q67 -17 123 -75.5t94 -167t38 -282.5t-39 -288t-97.5 -179.5t-129.5 -87.5q-52 -17 -99 -17q-17 0 -34 2q-23 2 -49.5 17.5t-53 35t-49 42l-39.5 39.5v-517h-250zM432 311 q33 -33 66 -55q29 -23 59.5 -39t56.5 -16q37 0 66 29.5t48.5 76.5t29.5 108.5t10 123.5q0 63 -10 120.5t-29.5 102.5t-46.5 71.5t-57 26.5q-33 0 -67 -14.5t-62 -30.5q-33 -20 -64 -43v-461z" />
<glyph unicode="q" horiz-adv-x="1124" d="M102 545q0 174 38 282.5t94.5 167t123.5 75.5q45 12 86 12q19 0 37 -3q23 -4 51.5 -15t58.5 -27.5t56.5 -33t44.5 -28.5v88h250v-1471h-250v517q-16 -16 -38.5 -39t-49 -42.5t-53.5 -35t-49 -17.5q-17 -2 -34 -2q-48 0 -100 17q-71 22 -129.5 87.5t-97.5 179.5t-39 288z M356 539q0 -61 10.5 -123t30 -109t48 -76.5t65.5 -29.5q25 0 56.5 16t60.5 39q33 23 65 55v461q-31 23 -63 43q-29 16 -63 30.5t-66 14.5q-31 0 -57.5 -26.5t-46 -71.5t-30 -102.5t-10.5 -120.5z" />
<glyph unicode="r" horiz-adv-x="944" d="M182 0v1061h250v-154q14 25 38 53.5t53.5 55t66.5 45t82 22.5q12 1 23 1q36 0 69 -10q43 -13 74 -30q37 -20 65 -45l-96 -245q-23 23 -49 43q-23 16 -56.5 30.5t-72.5 14.5q-61 0 -99 -27t-59.5 -68.5t-30 -93t-8.5 -100.5v-553h-250z" />
<glyph unicode="s" horiz-adv-x="980" d="M88 72l96 211q35 -23 78 -41q37 -16 85 -27.5t106 -11.5q70 0 116.5 30.5t46.5 85.5q0 45 -37.5 71t-93 45.5t-122 41t-122 57t-93 94t-37.5 152.5q0 86 39.5 145.5t101 94.5t134.5 50t136 15q72 0 132.5 -11t103.5 -25q51 -16 92 -37l-98 -209q-37 20 -76 37 q-35 14 -80 25.5t-92 11.5q-31 0 -58.5 -8.5t-48 -24t-31 -34.5t-6.5 -44q6 -33 47.5 -52.5t97.5 -39t119.5 -42t118 -62.5t90 -100t35.5 -155q0 -76 -29.5 -137t-84 -105t-130 -68.5t-165.5 -24.5q-70 0 -135.5 14t-118.5 31q-61 20 -117 47z" />
<glyph unicode="t" horiz-adv-x="903" d="M55 868v185h160v268h252v-268h258v-185h-258v-538q0 -72 19.5 -98.5t60.5 -26.5q47 0 88 11t74 28q37 16 69 39l78 -203q-49 -27 -102 -49q-47 -18 -108.5 -33.5t-127.5 -15.5q-84 0 -142.5 27.5t-94 72.5t-51 104.5t-15.5 122.5v559h-160z" />
<glyph unicode="u" horiz-adv-x="1148" d="M156 393v668h254v-715q0 -70 22 -110q17 -29 58 -29q14 0 32 4q29 6 55.5 18.5t49 27.5t40 29.5t27.5 24.5v750h250v-1061h-250v94q-16 -16 -38.5 -34.5t-52.5 -34t-64.5 -26.5t-73.5 -11q-137 0 -223 98t-86 307z" />
<glyph unicode="v" horiz-adv-x="956" d="M6 1061h270l195 -684l199 684h270l-358 -1061h-215z" />
<glyph unicode="w" horiz-adv-x="1437" d="M37 1061h270l125 -684l176 508h213l156 -514l160 690h264l-295 -1061h-213l-180 551l-201 -551h-215z" />
<glyph unicode="x" horiz-adv-x="1079" d="M57 0l342 532l-338 529h289l193 -342l196 342h279l-336 -524l338 -537h-287l-196 348l-199 -348h-281z" />
<glyph unicode="y" horiz-adv-x="1009" d="M10 -299l80 205q27 -16 51 -27q23 -10 48.5 -18t52.5 -8q41 0 66.5 31.5t41.5 70.5q18 45 31 102l-340 1004h264l201 -651l203 651h260q-102 -293 -185 -533q-35 -102 -70.5 -203.5t-64 -186.5t-50 -146.5t-28.5 -83.5q-14 -43 -39.5 -92t-64.5 -91t-90 -69t-115 -27 q-49 0 -94 10.5t-80 24.5q-41 16 -78 37z" />
<glyph unicode="z" horiz-adv-x="950" d="M57 0v170l455 688h-442v203h772v-152l-471 -690h471v-219h-785z" />
<glyph unicode="{" horiz-adv-x="716" d="M23 571v115q45 0 71.5 10.5t39.5 46t16.5 104t3.5 187.5q0 102 23.5 171t80.5 109t152.5 56t236.5 16v-149q-72 0 -113.5 -6t-65.5 -29.5t-31 -66.5t-7 -117q0 -90 -3 -154.5t-14.5 -109.5t-32 -74t-52.5 -47q63 -25 80.5 -116t17.5 -273q0 -72 8 -116t29.5 -67.5 t60.5 -32t103 -8.5v-141q-160 0 -254 24.5t-142.5 72t-62.5 115t-14 153.5t2 147.5t-8.5 101t-38 59t-86.5 19.5z" />
<glyph unicode="|" d="M395 -594v2212h230v-2212h-230z" />
<glyph unicode="}" horiz-adv-x="716" d="M70 1237v149q141 0 236 -16t152.5 -56t81 -108.5t23.5 -171.5q0 -119 3 -187.5t16.5 -104t39 -46t72.5 -10.5v-115q-59 0 -86.5 -19.5t-38 -59t-8.5 -101t2 -147.5t-14 -153.5t-62.5 -115t-142.5 -72t-254 -24.5v141q63 0 102 8.5t60.5 32t30 67.5t8.5 116q0 92 3 159.5 t13 114.5t29.5 75t52.5 40q-35 18 -54.5 47t-30.5 74t-14 109.5t-3 154.5q0 74 -7.5 117t-31 66.5t-66.5 29.5t-112 6z" />
<glyph unicode="~" horiz-adv-x="1306" d="M12 598q39 86 94 154q47 59 121 107t172 48t164 -21.5t118 -48t100 -48t116 -21.5q66 0 106.5 34t63.5 75q25 47 37 108l186 -86q-35 -92 -88 -164q-47 -61 -121.5 -112.5t-181.5 -51.5q-78 0 -134 21.5t-108.5 48.5t-110 48.5t-134.5 21.5q-49 0 -87 -36t-65 -77 q-31 -49 -53 -111z" />
<glyph horiz-adv-x="0" />
<glyph unicode="&#xa1;" horiz-adv-x="632" d="M143 6l41 901h273l35 -901h-349zM168 1051v301h301v-301h-301z" />
<glyph unicode="&#xa2;" horiz-adv-x="1036" d="M121 680q0 127 32.5 220t84 157.5t115 102.5t124.5 57v153h215v-139q53 -8 97.5 -21.5t72.5 -27.5q35 -16 62 -35l-93 -213q-14 14 -36 27q-18 10 -44 22t-59 23v-646q35 8 64.5 21.5t50.5 26.5q23 14 41 30l88 -202q-31 -18 -68 -37q-33 -16 -76.5 -31.5t-99.5 -26.5 v-157h-215v157q-63 14 -126.5 50t-115 100.5t-83 160t-31.5 228.5zM381 690q0 -111 26.5 -180.5t69.5 -106.5v564q-43 -39 -69.5 -106t-26.5 -171z" />
<glyph unicode="&#xa3;" horiz-adv-x="1107" d="M51 647v201h84q-14 76 -12 174q4 74 33.5 140.5t84 115.5t130 78.5t172.5 29.5q68 0 123 -13t99 -34.5t78 -50t58 -57.5q57 -68 84 -154l-231 -80q-12 49 -37 88q-23 33 -62 61t-104 28q-25 0 -51.5 -8.5t-49 -26t-39 -45t-20.5 -66.5q-6 -57 -3 -100t13 -80h349v-201 h-275q14 -45 21.5 -101.5t1.5 -133.5q-2 -35 -11.5 -64t-19.5 -49q-12 -25 -29 -43q53 12 98.5 7t82 -16t67.5 -23.5t53 -12.5q49 0 82 14.5t51 30.5q23 20 35 45l123 -158q-31 -45 -74 -80q-37 -31 -91 -55t-126 -24q-43 0 -76.5 9t-65.5 21.5t-65.5 21.5t-74.5 9 q-53 0 -96.5 -13.5t-77.5 -29.5q-39 -20 -72 -43l-145 174q51 53 92 109q35 47 64.5 105.5t29.5 117.5q0 47 -15.5 91t-35.5 91h-150z" />
<glyph unicode="&#xa4;" horiz-adv-x="1224" />
<glyph unicode="&#xa5;" horiz-adv-x="1181" d="M82 1323l276 51l228 -590l223 590l276 -53l-272 -600h168v-219h-256v-502h-274v502h-244v219h153z" />
<glyph unicode="&#xa6;" horiz-adv-x="661" d="M215 238h229v-797h-229v797zM215 809v799h229v-799h-229z" />
<glyph unicode="&#xa7;" horiz-adv-x="1142" d="M174 55l94 197q35 -23 76 -39q35 -14 84 -25.5t104 -11.5q70 0 116 28.5t46 82.5q0 41 -36.5 64.5t-92 43t-121 39t-121 53t-92 88t-36.5 142.5q0 68 28.5 117t75.5 84q-35 33 -56.5 78.5t-21.5 111.5q0 82 40 136t100.5 88t131 48.5t134.5 14.5q72 0 131 -11.5 t102 -23.5q51 -16 90 -35l-96 -195q-35 20 -74 35q-35 12 -79 22.5t-91 10.5q-31 0 -58.5 -7t-47 -21.5t-29.5 -33t-6 -40.5q6 -31 46 -49.5t96.5 -36t119 -40t115.5 -58t88 -93t35 -145.5q0 -123 -90 -207q29 -35 46 -80t17 -104q0 -72 -29.5 -129.5t-83 -98.5t-128 -63.5 t-162.5 -22.5q-68 0 -133.5 13.5t-116.5 29.5q-61 18 -115 43zM442 705q4 -20 24.5 -36t51.5 -28t69 -23.5t79 -25.5q55 29 55 86q0 51 -53.5 76.5t-126.5 48.5q-47 -10 -77 -36.5t-22 -61.5z" />
<glyph unicode="&#xa8;" horiz-adv-x="1128" d="M219 1255q0 57 41 98.5t98 41.5q59 0 100.5 -41.5t41.5 -98.5t-41 -98t-101 -41q-57 0 -98 41t-41 98zM631 1255q0 57 40 98.5t99 41.5t99 -41.5t40 -98.5t-40 -98t-99 -41t-99 41t-40 98z" />
<glyph unicode="&#xa9;" horiz-adv-x="1359" d="M35 680q0 143 50 270t138 221.5t205 148.5t250 54t251 -54t205 -148.5t137 -221.5t50 -270q0 -145 -50 -271t-137 -221.5t-205 -149.5t-251 -54t-250 54t-205 149.5t-138 221.5t-50 271zM211 680q0 -106 37 -200.5t100.5 -164t148.5 -110.5t181 -41t182 41t149.5 110.5 t100.5 163.5t37 201q0 106 -37 201.5t-100.5 165t-149.5 110.5t-182 41t-181 -41t-148.5 -110.5t-100.5 -165t-37 -201.5zM362 692q0 174 88.5 266.5t233.5 92.5q82 0 137.5 -23.5t89.5 -52.5q39 -35 62 -76l-164 -65q-8 25 -25 47q-14 16 -35.5 31.5t-52.5 15.5 q-23 0 -47 -7.5t-45.5 -32t-35 -71.5t-13.5 -125q0 -80 12.5 -129t30.5 -76.5t41 -37t45 -9.5q35 0 62.5 15.5t48.5 33.5q23 23 43 52l149 -64q-29 -45 -72 -80q-37 -29 -94 -53.5t-137 -24.5q-160 0 -241 99.5t-81 273.5z" />
<glyph unicode="&#xaa;" d="M156 467v151h708v-151h-708zM266 889q0 55 24.5 94t58.5 63.5t69 37t57 16.5q45 10 78 12t45 4q4 33 -2 60q-4 23 -19.5 41t-50.5 18t-68.5 -11.5t-62.5 -25.5q-33 -16 -63 -35l-53 127q35 23 73 41q35 16 79 29.5t95 13.5q115 0 172.5 -60.5t57.5 -170.5v-275 q0 -78 10 -125q6 -25 12 -43h-157l-17 68q-16 -20 -39 -39q-18 -16 -45.5 -28.5t-64.5 -14.5q-33 0 -67 10.5t-60.5 35t-44 63.5t-17.5 94zM414 887q0 -47 21.5 -58.5t39.5 -11.5q33 0 55.5 11.5t38.5 27.5q18 18 29 41v107q-100 0 -142 -35t-42 -82z" />
<glyph unicode="&#xab;" horiz-adv-x="1433" d="M27 678l616 543l188 -183l-436 -360l436 -365l-188 -182zM588 678l616 543l189 -183l-437 -360l435 -365l-187 -182z" />
<glyph unicode="&#xac;" horiz-adv-x="1214" d="M25 760v196h1153v-573h-228v377h-925z" />
<glyph unicode="&#xad;" horiz-adv-x="1132" d="M272 442v197h602v-197h-602z" />
<glyph unicode="&#xae;" horiz-adv-x="1335" d="M20 680q0 143 50.5 270t137.5 221.5t204.5 148.5t251.5 54q133 0 249.5 -54t204.5 -148.5t138.5 -221.5t50.5 -270q0 -145 -50.5 -271t-138.5 -221.5t-204.5 -149.5t-249.5 -54t-251 54t-205 149.5t-137.5 221.5t-50.5 271zM195 680q0 -106 36.5 -200.5t100 -164 t149.5 -110.5t183 -41q96 0 181 41t148.5 110.5t100 163.5t36.5 201q0 106 -36.5 201.5t-100 165t-148.5 110.5t-181 41t-182.5 -41t-150 -110.5t-100 -165t-36.5 -201.5zM412 381v657h176h59q53 0 104.5 -10t91.5 -32.5t64.5 -58.5t24.5 -87q0 -74 -45 -120t-107 -68 l195 -248l-150 -54l-200 285h-37v-264h-176zM588 756h88q29 0 58.5 18.5t29.5 65.5t-27.5 67.5t-66.5 20.5h-82v-172z" />
<glyph unicode="&#xaf;" d="M215 1141v176h592v-176h-592z" />
<glyph unicode="&#xb0;" horiz-adv-x="1155" d="M117 1090q0 86 35.5 162.5t98 133t145.5 89t179 32.5q94 0 178.5 -32.5t147 -89t98 -133t35.5 -162.5q0 -88 -35.5 -165t-98 -133.5t-146.5 -89t-179 -32.5q-96 0 -179 32.5t-145.5 89t-98 133.5t-35.5 165zM336 1090q0 -49 18.5 -91.5t51 -74t76.5 -50t93 -18.5 t93.5 18.5t77 50t52 73.5t19.5 92q0 47 -19.5 89t-52 73.5t-76.5 50t-94 18.5q-49 0 -93 -18.5t-76.5 -50t-51 -73.5t-18.5 -89z" />
<glyph unicode="&#xb1;" horiz-adv-x="1183" d="M25 0v195h1134v-195h-1134zM29 731v195h460v448h213v-448h461v-195h-461v-461h-213v461h-460z" />
<glyph unicode="&#xb2;" d="M209 1104q10 78 47 139q14 27 36.5 51.5t54.5 45t74 32.5t95 12q141 0 213 -67.5t72 -161.5q0 -35 -11.5 -63.5t-29 -52t-39 -44t-41.5 -41.5q-20 -20 -48 -43.5t-54 -46.5q-31 -25 -62 -49h275v-192h-564v170q68 66 123 120l148 148q23 23 41 46t18 54q0 33 -12.5 42 t-28.5 11q-23 4 -41 -4t-26 -43q-4 -16 -8.5 -34.5t-8.5 -34.5q-4 -20 -8 -37z" />
<glyph unicode="&#xb3;" d="M223 637l8 192q94 -12 160 -7t106 19.5t57 36t17 44.5q0 41 -35.5 55t-76.5 16q-51 0 -113 -12v123l115 96h-221v178h528v-143l-156 -117q51 -10 90 -33q35 -20 63 -56t28 -95t-29 -119.5t-94.5 -105.5t-175 -68t-271.5 -4z" />
<glyph unicode="&#xb4;" d="M276 1214l414 207l129 -213l-452 -147z" />
<glyph unicode="&#xb5;" horiz-adv-x="1105" d="M156 1061h252v-715q0 -70 23.5 -109.5t90.5 -25.5q27 6 53.5 18.5t49 27.5t40 29.5t27.5 24.5v750h252v-1061h-252v94q-16 -16 -38.5 -34.5t-51.5 -34t-63.5 -26.5t-73.5 -11h-29.5t-27.5 4v-416h-250z" />
<glyph unicode="&#xb6;" horiz-adv-x="1167" d="M14 963q0 143 51.5 227t131 127t176 55t184.5 12h578v-225h-91v-1286h-182v1288h-160v-1288h-190v649q-139 -4 -250 41q-47 18 -91 50t-79 79t-56.5 113.5t-21.5 157.5z" />
<glyph unicode="&#xb7;" d="M336 737q0 35 14.5 66t38 54.5t55 36.5t68.5 13q74 0 125 -49t51 -121t-51 -121t-125 -49q-37 0 -68.5 13.5t-55 36t-38 54t-14.5 66.5z" />
<glyph unicode="&#xb8;" d="M330 -344l39 113q49 -23 90 -35q35 -10 68.5 -11.5t45.5 21.5q10 23 8.5 39t-12 28.5t-28 20.5t-37.5 12q-47 10 -113 9l58 188h196l-39 -129q43 0 78 -14q29 -12 52.5 -44t19.5 -92q-2 -53 -21.5 -84.5t-50.5 -49t-68.5 -22.5t-76.5 -1q-92 8 -209 51z" />
<glyph unicode="&#xb9;" d="M283 1270l383 125v-566h112v-206h-463v206h140v283l-93 -37z" />
<glyph unicode="&#xba;" d="M188 467v151h637v-151h-637zM244 1038q0 72 18.5 135.5t54 110.5t88 73.5t117.5 26.5q70 0 122 -26.5t87 -73.5t52.5 -110.5t17.5 -135.5t-20.5 -134t-57.5 -109t-88 -74t-113 -27q-66 0 -118 27t-87.5 74t-54 109.5t-18.5 133.5zM399 1038q0 -86 32 -147.5t91 -61.5 q53 0 88 61.5t35 147.5q0 88 -32 149.5t-91 61.5t-91 -61.5t-32 -149.5z" />
<glyph unicode="&#xbb;" horiz-adv-x="1409" d="M25 313l436 365l-436 360l188 183l616 -543l-616 -547zM584 313l436 365l-436 360l188 183l617 -543l-617 -547z" />
<glyph unicode="&#xbc;" horiz-adv-x="1538" d="M117 1270l383 125v-566h112v-206h-462v206h139v283l-92 -37zM315 43l801 1341l184 -104l-798 -1333zM840 137l168 594l194 -29l-108 -417l116 4v295h197v-295h74v-152h-74v-137h-199v137h-368z" />
<glyph unicode="&#xbd;" horiz-adv-x="1538" d="M147 1270l383 125v-566h113v-206h-463v206h139v283l-92 -37zM291 43l803 1341l184 -104l-799 -1333zM854 477q10 78 47 139q14 27 37 51.5t54.5 45t73.5 33t95 12.5q141 0 213 -66.5t72 -163.5q0 -35 -11.5 -62.5t-28.5 -52t-38.5 -45t-42.5 -40.5q-20 -20 -48 -44 t-54 -44l-62 -50h275v-192h-564v170q68 66 123 121q25 25 48.5 47t43 42.5t35 35t21.5 20.5q23 23 41 47.5t18 55.5t-12 40t-29 13q-20 4 -38.5 -4t-28.5 -43q-4 -16 -8.5 -35t-8.5 -35q-4 -20 -8 -37z" />
<glyph unicode="&#xbe;" horiz-adv-x="1531" d="M127 633l8 192q94 -12 159.5 -7t105.5 19.5t57.5 36t17.5 44.5q0 41 -36 55t-77 16q-51 0 -112 -12v123l115 96h-222v178h529v-143l-156 -117q51 -10 90 -33q35 -20 62.5 -56t27.5 -95t-28.5 -119.5t-94 -106t-175 -68t-271.5 -3.5zM246 43l801 1341l184 -104l-799 -1333 zM770 137l168 594l195 -29l-109 -417l117 4v295h196v-295h74v-152h-74v-137h-198v137h-369z" />
<glyph unicode="&#xbf;" horiz-adv-x="1179" d="M139 330q0 76 23.5 133t58.5 101t75 82t75 76t58.5 80t23.5 97h276q0 -84 -23.5 -147.5t-57.5 -112.5t-75 -88t-74.5 -74t-57 -68.5t-23.5 -74.5q0 -23 6 -48.5t21.5 -47t42 -36t67.5 -14.5q68 0 111 39t67 86q29 55 41 127l268 -39q-18 -119 -62 -202.5t-107.5 -137 t-144.5 -78t-173 -24.5q-113 0 -191.5 34t-129 87t-73 118.5t-22.5 131.5zM424 1040v301h326v-301h-326z" />
<glyph unicode="&#xc0;" horiz-adv-x="1048" d="M18 27l367 1319h274l369 -1319l-254 -68l-92 399h-320l-94 -399zM252 1509l131 213l413 -207l-90 -153zM403 543h240l-119 547z" />
<glyph unicode="&#xc1;" horiz-adv-x="1048" d="M18 27l367 1319h274l369 -1319l-254 -68l-92 399h-320l-94 -399zM256 1515l414 207l129 -213l-452 -147zM403 543h240l-119 547z" />
<glyph unicode="&#xc2;" horiz-adv-x="1048" d="M18 27l367 1319h274l369 -1319l-254 -68l-92 399h-320l-94 -399zM155 1499l369 225l367 -223l-95 -139l-270 108l-270 -108zM403 543h240l-119 547z" />
<glyph unicode="&#xc3;" horiz-adv-x="1048" d="M18 27l367 1319h274l369 -1319l-254 -68l-92 399h-320l-94 -399zM150 1448q16 66 49 119q29 45 75 82.5t118 37.5q57 0 87.5 -17t50 -36.5t39 -37t54.5 -17.5t51.5 18.5t24.5 40.5q8 27 8 62l190 -56q-20 -80 -55 -141q-29 -53 -77 -97t-119 -44q-53 0 -87 17.5t-59.5 37 t-49.5 36.5t-54 17q-23 0 -36 -17t-22 -38q-8 -23 -12 -53zM403 543h240l-119 547z" />
<glyph unicode="&#xc4;" horiz-adv-x="1048" d="M18 27l367 1319h274l369 -1319l-254 -68l-92 399h-320l-94 -399zM182 1556q0 57 41 98.5t98 41.5q59 0 100.5 -41.5t41.5 -98.5t-41 -98t-101 -41q-57 0 -98 41t-41 98zM403 543h240l-119 547zM594 1556q0 57 40 98.5t99 41.5t99 -41.5t40 -98.5t-40 -98t-99 -41t-99 41 t-40 98z" />
<glyph unicode="&#xc5;" horiz-adv-x="1048" d="M18 27l367 1319h274l369 -1319l-254 -68l-92 399h-320l-94 -399zM301 1487q0 45 17 84t48 68.5t71 47t87 17.5q45 0 86 -17.5t71.5 -47t48 -68.5t17.5 -84t-17.5 -85t-48 -68.5t-71.5 -46t-86 -17.5q-47 0 -87 17.5t-71 46t-48 68.5t-17 85zM403 543h240l-119 547z M432 1487q0 -39 26.5 -64.5t65.5 -25.5t65.5 25.5t26.5 64.5q0 37 -26.5 63.5t-65.5 26.5t-65.5 -26.5t-26.5 -63.5z" />
<glyph unicode="&#xc6;" horiz-adv-x="1185" d="M16 27l361 1319h727v-209h-316v-318h281v-223h-281v-373h316v-223h-567v387h-189l-96 -426zM399 614h138v555z" />
<glyph unicode="&#xc7;" horiz-adv-x="1110" d="M104 686q0 164 35 290t97.5 212t149.5 130t192 44q123 0 203.5 -45t129.5 -98q57 -63 90 -142l-237 -125q-16 51 -39 90q-20 35 -51 63t-78 28q-33 0 -70 -14.5t-67.5 -61.5t-51 -136.5t-20.5 -236.5t17.5 -239.5t45 -143.5t61.5 -69.5t67 -18.5q51 0 93 29.5t70 64.5 q35 41 62 94l219 -120q-41 -84 -104 -150q-53 -57 -138.5 -103t-201.5 -46q-117 0 -206 49t-148.5 140t-89.5 221t-30 294zM338 -344l39 113q49 -23 90 -35q35 -10 68.5 -11.5t45.5 21.5q10 23 8.5 39t-12 28.5t-28 20.5t-37.5 12q-47 10 -113 9l58 188h196l-39 -129 q43 0 78 -14q29 -12 52.5 -44t19.5 -92q-2 -53 -21.5 -84.5t-50.5 -49t-68.5 -22.5t-76.5 -1q-92 8 -209 51z" />
<glyph unicode="&#xc8;" horiz-adv-x="1077" d="M184 0v1346h789v-209h-514v-318h430v-225h-430v-371h514v-223h-789zM267 1509l131 213l413 -207l-90 -153z" />
<glyph unicode="&#xc9;" horiz-adv-x="1077" d="M184 0v1346h789v-209h-514v-318h430v-225h-430v-371h514v-223h-789zM270 1515l414 207l129 -213l-452 -147z" />
<glyph unicode="&#xca;" horiz-adv-x="1077" d="M170 1499l369 225l367 -223l-95 -139l-270 108l-270 -108zM184 0v1346h789v-209h-514v-318h430v-225h-430v-371h514v-223h-789z" />
<glyph unicode="&#xcb;" horiz-adv-x="1077" d="M184 0v1346h789v-209h-514v-318h430v-225h-430v-371h514v-223h-789zM196 1556q0 57 41 98.5t98 41.5q59 0 100.5 -41.5t41.5 -98.5t-41 -98t-101 -41q-57 0 -98 41t-41 98zM608 1556q0 57 40 98.5t99 41.5t99 -41.5t40 -98.5t-40 -98t-99 -41t-99 41t-40 98z" />
<glyph unicode="&#xcc;" horiz-adv-x="817" d="M84 0v223h186v914h-186v209h645v-209h-186v-914h186v-223h-645zM140 1509l131 213l413 -207l-90 -153z" />
<glyph unicode="&#xcd;" horiz-adv-x="817" d="M84 0v223h186v914h-186v209h645v-209h-186v-914h186v-223h-645zM139 1515l414 207l129 -213l-452 -147z" />
<glyph unicode="&#xce;" horiz-adv-x="817" d="M43 1499l369 225l367 -223l-95 -139l-270 108l-270 -108zM84 0v223h186v914h-186v209h645v-209h-186v-914h186v-223h-645z" />
<glyph unicode="&#xcf;" horiz-adv-x="817" d="M65 1556q0 57 41 98.5t98 41.5q59 0 100.5 -41.5t41.5 -98.5t-41 -98t-101 -41q-57 0 -98 41t-41 98zM84 0v223h186v914h-186v209h645v-209h-186v-914h186v-223h-645zM477 1556q0 57 40 98.5t99 41.5t99 -41.5t40 -98.5t-40 -98t-99 -41t-99 41t-40 98z" />
<glyph unicode="&#xd0;" horiz-adv-x="1161" d="M123 580v192h117v363h-109v211h442q246 0 365 -154t119 -502q0 -68 -4 -145.5t-19.5 -154.5t-45.5 -147.5t-80 -125t-123.5 -87t-176.5 -32.5h-477v223h109v359h-117zM500 219h102q23 0 52.5 15.5t57 64.5t46 144.5t18.5 254.5q0 154 -22.5 241t-53 131t-62.5 55.5 t-50 11.5h-88v-365h166v-192h-166v-361z" />
<glyph unicode="&#xd1;" horiz-adv-x="1206" d="M182 0v1346h291l285 -809h14l-24 809h274v-1346h-274h-17l-287 823h-14l25 -823h-273zM229 1448q16 66 49 119q29 45 75 82.5t118 37.5q57 0 87.5 -17t50 -36.5t39 -37t54.5 -17.5t51.5 18.5t24.5 40.5q8 27 8 62l190 -56q-20 -80 -55 -141q-29 -53 -77 -97t-119 -44 q-53 0 -87 17.5t-59.5 37t-49.5 36.5t-54 17q-23 0 -36 -17t-22 -38q-8 -23 -12 -53z" />
<glyph unicode="&#xd2;" horiz-adv-x="1093" d="M100 676q0 190 35 321t95.5 211t142.5 116t174 36t173 -32t141.5 -109.5t95 -209.5t34.5 -333q0 -197 -34.5 -329t-95 -214t-141.5 -116.5t-173 -34.5t-174 34.5t-142.5 116.5t-95.5 214t-35 329zM275 1509l131 213l413 -207l-90 -153zM381 676q0 -129 13.5 -218 t36 -142.5t52 -77t64.5 -23.5q39 0 70.5 23.5t52 77t32 142.5t11.5 218q0 133 -8.5 220t-28 139t-51 73.5t-78.5 21.5q-39 0 -70 -23.5t-52.5 -77.5t-32.5 -141t-11 -212z" />
<glyph unicode="&#xd3;" horiz-adv-x="1093" d="M100 676q0 190 35 321t95.5 211t142.5 116t174 36t173 -32t141.5 -109.5t95 -209.5t34.5 -333q0 -197 -34.5 -329t-95 -214t-141.5 -116.5t-173 -34.5t-174 34.5t-142.5 116.5t-95.5 214t-35 329zM276 1515l414 207l129 -213l-452 -147zM381 676q0 -129 13.5 -218 t36 -142.5t52 -77t64.5 -23.5q39 0 70.5 23.5t52 77t32 142.5t11.5 218q0 133 -8.5 220t-28 139t-51 73.5t-78.5 21.5q-39 0 -70 -23.5t-52.5 -77.5t-32.5 -141t-11 -212z" />
<glyph unicode="&#xd4;" horiz-adv-x="1093" d="M100 676q0 190 35 321t95.5 211t142.5 116t174 36t173 -32t141.5 -109.5t95 -209.5t34.5 -333q0 -197 -34.5 -329t-95 -214t-141.5 -116.5t-173 -34.5t-174 34.5t-142.5 116.5t-95.5 214t-35 329zM178 1499l369 225l367 -223l-95 -139l-270 108l-270 -108zM381 676 q0 -129 13.5 -218t36 -142.5t52 -77t64.5 -23.5q39 0 70.5 23.5t52 77t32 142.5t11.5 218q0 133 -8.5 220t-28 139t-51 73.5t-78.5 21.5q-39 0 -70 -23.5t-52.5 -77.5t-32.5 -141t-11 -212z" />
<glyph unicode="&#xd5;" horiz-adv-x="1093" d="M100 676q0 190 35 321t95.5 211t142.5 116t174 36t173 -32t141.5 -109.5t95 -209.5t34.5 -333q0 -197 -34.5 -329t-95 -214t-141.5 -116.5t-173 -34.5t-174 34.5t-142.5 116.5t-95.5 214t-35 329zM172 1479q16 66 49 119q29 45 75 82.5t118 37.5q57 0 87.5 -17t50 -36.5 t39 -37t54.5 -17.5t51.5 18.5t24.5 40.5q8 27 8 62l190 -56q-20 -80 -55 -141q-29 -53 -77 -97t-119 -44q-53 0 -87 17.5t-59.5 37t-49.5 36.5t-54 17q-23 0 -36 -17t-22 -38q-8 -23 -12 -53zM381 676q0 -129 13.5 -218t36 -142.5t52 -77t64.5 -23.5q39 0 70.5 23.5t52 77 t32 142.5t11.5 218q0 133 -8.5 220t-28 139t-51 73.5t-78.5 21.5q-39 0 -70 -23.5t-52.5 -77.5t-32.5 -141t-11 -212z" />
<glyph unicode="&#xd6;" horiz-adv-x="1093" d="M100 676q0 190 35 321t95.5 211t142.5 116t174 36t173 -32t141.5 -109.5t95 -209.5t34.5 -333q0 -197 -34.5 -329t-95 -214t-141.5 -116.5t-173 -34.5t-174 34.5t-142.5 116.5t-95.5 214t-35 329zM205 1556q0 57 41 98.5t98 41.5q59 0 100.5 -41.5t41.5 -98.5t-41 -98 t-101 -41q-57 0 -98 41t-41 98zM381 676q0 -129 13.5 -218t36 -142.5t52 -77t64.5 -23.5q39 0 70.5 23.5t52 77t32 142.5t11.5 218q0 133 -8.5 220t-28 139t-51 73.5t-78.5 21.5q-39 0 -70 -23.5t-52.5 -77.5t-32.5 -141t-11 -212zM617 1556q0 57 40 98.5t99 41.5t99 -41.5 t40 -98.5t-40 -98t-99 -41t-99 41t-40 98z" />
<glyph unicode="&#xd7;" horiz-adv-x="1359" d="M51 293l473 440l-473 441l156 145l473 -440l477 440l154 -145l-475 -441l473 -440l-152 -150l-477 445l-475 -445z" />
<glyph unicode="&#xd8;" horiz-adv-x="1093" d="M53 55l113 195q-31 78 -48.5 183.5t-17.5 244.5q0 193 35 326t95.5 214.5t142.5 118.5t174 37q66 0 124 -16.5t111 -50.5l66 114l168 -90l-107 -182q41 -80 61.5 -195.5t20.5 -275.5q0 -199 -34.5 -332t-95 -214t-141.5 -114.5t-173 -33.5q-76 0 -143.5 21.5t-122.5 70.5 l-64 -109zM381 618l272 469q-18 29 -44.5 41.5t-61.5 12.5q-39 0 -70 -24.5t-52.5 -79t-32.5 -142.5t-11 -217v-60zM426 324q23 -59 53.5 -83t67.5 -24q39 0 70.5 22.5t52 76t32 141.5t11.5 221q0 37 -1 69.5t-1 61.5z" />
<glyph unicode="&#xd9;" horiz-adv-x="1165" d="M182 377v969h275v-928q0 -37 2 -73t14 -65.5t37 -48t70 -18.5t70.5 15.5t38.5 43t16.5 65.5t3.5 81v928h272v-969q0 -72 -21.5 -141.5t-69.5 -127t-124 -92t-186 -34.5q-111 0 -187 32.5t-123 88t-67.5 127t-20.5 147.5zM310 1509l131 213l413 -207l-90 -153z" />
<glyph unicode="&#xda;" horiz-adv-x="1165" d="M182 377v969h275v-928q0 -37 2 -73t14 -65.5t37 -48t70 -18.5t70.5 15.5t38.5 43t16.5 65.5t3.5 81v928h272v-969q0 -72 -21.5 -141.5t-69.5 -127t-124 -92t-186 -34.5q-111 0 -187 32.5t-123 88t-67.5 127t-20.5 147.5zM311 1515l414 207l129 -213l-452 -147z" />
<glyph unicode="&#xdb;" horiz-adv-x="1165" d="M182 377v969h275v-928q0 -37 2 -73t14 -65.5t37 -48t70 -18.5t70.5 15.5t38.5 43t16.5 65.5t3.5 81v928h272v-969q0 -72 -21.5 -141.5t-69.5 -127t-124 -92t-186 -34.5q-111 0 -187 32.5t-123 88t-67.5 127t-20.5 147.5zM215 1499l369 225l367 -223l-95 -139l-270 108 l-270 -108z" />
<glyph unicode="&#xdc;" horiz-adv-x="1165" d="M182 377v969h275v-928q0 -37 2 -73t14 -65.5t37 -48t70 -18.5t70.5 15.5t38.5 43t16.5 65.5t3.5 81v928h272v-969q0 -72 -21.5 -141.5t-69.5 -127t-124 -92t-186 -34.5q-111 0 -187 32.5t-123 88t-67.5 127t-20.5 147.5zM237 1556q0 57 41 98.5t98 41.5q59 0 100.5 -41.5 t41.5 -98.5t-41 -98t-101 -41q-57 0 -98 41t-41 98zM649 1556q0 57 40 98.5t99 41.5t99 -41.5t40 -98.5t-40 -98t-99 -41t-99 41t-40 98z" />
<glyph unicode="&#xdd;" horiz-adv-x="1089" d="M43 1323l276 51l228 -590l225 590l275 -53l-359 -789v-532h-276v530zM276 1515l414 207l129 -213l-452 -147z" />
<glyph unicode="&#xde;" horiz-adv-x="1142" d="M164 -2v1348h274v-261h90q84 0 164 -21.5t141.5 -67.5t99.5 -119.5t38 -178.5q0 -104 -35 -183t-92.5 -131t-128 -77.5t-142.5 -25.5h-135v-283h-274zM438 504h135q20 0 45 9t44.5 29.5t33 54.5t13.5 83q0 98 -42 139t-102 41h-127v-356z" />
<glyph unicode="&#xdf;" horiz-adv-x="1058" d="M193 0v809q0 72 28.5 128t76.5 94t111.5 58.5t133.5 20.5t129 -21.5t103 -61.5t68.5 -94t24.5 -122q0 -66 -19.5 -106.5t-41.5 -63.5q-27 -27 -62 -37q57 -18 105 -55q39 -31 71.5 -85t32.5 -140t-32.5 -147.5t-86 -100.5t-122 -57.5t-138.5 -18.5h-51v182h68 q45 0 77.5 36t32.5 108q0 47 -14 79.5t-35.5 53t-47 30t-50.5 9.5q-27 0 -50.5 -1t-43.5 -1h-43v-496h-225zM418 662h61q57 0 95 38.5t38 92.5q0 55 -14 85.5t-61 30.5t-72 -19.5t-35 -53t-11 -78.5t-1 -96z" />
<glyph unicode="&#xe0;" horiz-adv-x="1056" d="M84 303q0 90 40 152.5t94 101.5t110.5 59.5t91.5 26.5q72 16 126 19.5t72 5.5q6 53 -2 96q-8 35 -33.5 65.5t-78.5 30.5q-55 0 -110.5 -18.5t-100.5 -40.5q-53 -25 -103 -58l-86 207q53 37 117 68q53 25 126 46t157 21q182 0 275 -98t93 -274v-445q0 -68 5.5 -117 t13.5 -83q8 -39 18 -68h-256l-26 106q-27 -35 -62 -63q-31 -25 -73.5 -45.5t-102.5 -22.5q-53 -2 -107.5 15.5t-98.5 56.5t-71.5 101.5t-27.5 154.5zM256 1241l131 213l413 -207l-90 -153zM322 299q0 -37 10 -59.5t24.5 -33.5t32 -15.5t33.5 -4.5q53 0 89 19.5t60 44.5 q27 29 47 65v172q-80 0 -137 -15t-92 -40.5t-51 -60.5t-16 -72z" />
<glyph unicode="&#xe1;" horiz-adv-x="1056" d="M84 303q0 90 40 152.5t94 101.5t110.5 59.5t91.5 26.5q72 16 126 19.5t72 5.5q6 53 -2 96q-8 35 -33.5 65.5t-78.5 30.5q-55 0 -110.5 -18.5t-100.5 -40.5q-53 -25 -103 -58l-86 207q53 37 117 68q53 25 126 46t157 21q182 0 275 -98t93 -274v-445q0 -68 5.5 -117 t13.5 -83q8 -39 18 -68h-256l-26 106q-27 -35 -62 -63q-31 -25 -73.5 -45.5t-102.5 -22.5q-53 -2 -107.5 15.5t-98.5 56.5t-71.5 101.5t-27.5 154.5zM260 1245l414 207l129 -213l-452 -147zM322 299q0 -37 10 -59.5t24.5 -33.5t32 -15.5t33.5 -4.5q53 0 89 19.5t60 44.5 q27 29 47 65v172q-80 0 -137 -15t-92 -40.5t-51 -60.5t-16 -72z" />
<glyph unicode="&#xe2;" horiz-adv-x="1056" d="M84 303q0 90 40 152.5t94 101.5t110.5 59.5t91.5 26.5q72 16 126 19.5t72 5.5q6 53 -2 96q-8 35 -33.5 65.5t-78.5 30.5q-55 0 -110.5 -18.5t-100.5 -40.5q-53 -25 -103 -58l-86 207q53 37 117 68q53 25 126 46t157 21q182 0 275 -98t93 -274v-445q0 -68 5.5 -117 t13.5 -83q8 -39 18 -68h-256l-26 106q-27 -35 -62 -63q-31 -25 -73.5 -45.5t-102.5 -22.5q-53 -2 -107.5 15.5t-98.5 56.5t-71.5 101.5t-27.5 154.5zM159 1218l369 225l367 -223l-95 -139l-270 108l-270 -108zM322 299q0 -37 10 -59.5t24.5 -33.5t32 -15.5t33.5 -4.5 q53 0 89 19.5t60 44.5q27 29 47 65v172q-80 0 -137 -15t-92 -40.5t-51 -60.5t-16 -72z" />
<glyph unicode="&#xe3;" horiz-adv-x="1056" d="M84 303q0 90 40 152.5t94 101.5t110.5 59.5t91.5 26.5q72 16 126 19.5t72 5.5q6 53 -2 96q-8 35 -33.5 65.5t-78.5 30.5q-55 0 -110.5 -18.5t-100.5 -40.5q-53 -25 -103 -58l-86 207q53 37 117 68q53 25 126 46t157 21q182 0 275 -98t93 -274v-445q0 -68 5.5 -117 t13.5 -83q8 -39 18 -68h-256l-26 106q-27 -35 -62 -63q-31 -25 -73.5 -45.5t-102.5 -22.5q-53 -2 -107.5 15.5t-98.5 56.5t-71.5 101.5t-27.5 154.5zM154 1202q16 66 49 119q29 45 75 82.5t118 37.5q57 0 87.5 -17t50 -36.5t39 -37t54.5 -17.5t51.5 18.5t24.5 40.5 q8 27 8 62l190 -56q-20 -80 -55 -141q-29 -53 -77 -97t-119 -44q-53 0 -87 17.5t-59.5 37t-49.5 36.5t-54 17q-23 0 -36 -17t-22 -38q-8 -23 -12 -53zM322 299q0 -37 10 -59.5t24.5 -33.5t32 -15.5t33.5 -4.5q53 0 89 19.5t60 44.5q27 29 47 65v172q-80 0 -137 -15 t-92 -40.5t-51 -60.5t-16 -72z" />
<glyph unicode="&#xe4;" horiz-adv-x="1056" d="M84 303q0 90 40 152.5t94 101.5t110.5 59.5t91.5 26.5q72 16 126 19.5t72 5.5q6 53 -2 96q-8 35 -33.5 65.5t-78.5 30.5q-55 0 -110.5 -18.5t-100.5 -40.5q-53 -25 -103 -58l-86 207q53 37 117 68q53 25 126 46t157 21q182 0 275 -98t93 -274v-445q0 -68 5.5 -117 t13.5 -83q8 -39 18 -68h-256l-26 106q-27 -35 -62 -63q-31 -25 -73.5 -45.5t-102.5 -22.5q-53 -2 -107.5 15.5t-98.5 56.5t-71.5 101.5t-27.5 154.5zM174 1265q0 57 41 98.5t98 41.5q59 0 100.5 -41.5t41.5 -98.5t-41 -98t-101 -41q-57 0 -98 41t-41 98zM322 299 q0 -37 10 -59.5t24.5 -33.5t32 -15.5t33.5 -4.5q53 0 89 19.5t60 44.5q27 29 47 65v172q-80 0 -137 -15t-92 -40.5t-51 -60.5t-16 -72zM586 1265q0 57 40 98.5t99 41.5t99 -41.5t40 -98.5t-40 -98t-99 -41t-99 41t-40 98z" />
<glyph unicode="&#xe5;" horiz-adv-x="1056" d="M84 303q0 90 40 152.5t94 101.5t110.5 59.5t91.5 26.5q72 16 126 19.5t72 5.5q6 53 -2 96q-8 35 -33.5 65.5t-78.5 30.5q-55 0 -110.5 -18.5t-100.5 -40.5q-53 -25 -103 -58l-86 207q53 37 117 68q53 25 126 46t157 21q182 0 275 -98t93 -274v-445q0 -68 5.5 -117 t13.5 -83q8 -39 18 -68h-256l-26 106q-27 -35 -62 -63q-31 -25 -73.5 -45.5t-102.5 -22.5q-53 -2 -107.5 15.5t-98.5 56.5t-71.5 101.5t-27.5 154.5zM306 1348q0 45 17 84t48 68.5t71 47t87 17.5q45 0 86 -17.5t71.5 -47t48 -68.5t17.5 -84t-17.5 -85t-48 -68.5t-71.5 -46 t-86 -17.5q-47 0 -87 17.5t-71 46t-48 68.5t-17 85zM322 299q0 -37 10 -59.5t24.5 -33.5t32 -15.5t33.5 -4.5q53 0 89 19.5t60 44.5q27 29 47 65v172q-80 0 -137 -15t-92 -40.5t-51 -60.5t-16 -72zM437 1348q0 -39 26.5 -64.5t65.5 -25.5t65.5 25.5t26.5 64.5 q0 37 -26.5 63.5t-65.5 26.5t-65.5 -26.5t-26.5 -63.5z" />
<glyph unicode="&#xe6;" horiz-adv-x="1593" d="M80 303q0 90 40 152.5t94 101.5t110.5 59.5t91.5 26.5q72 16 125 19.5t71 5.5q6 53 -2 96q-8 35 -32.5 65.5t-77.5 30.5q-55 0 -110.5 -18.5t-100.5 -40.5q-53 -25 -103 -58l-86 207q53 37 117 68q53 25 126 46t157 21q186 0 282 -106q68 61 146 83.5t141 22.5 q117 0 198 -44t131 -123.5t69.5 -192.5t13.5 -250h-600q12 -147 78.5 -209.5t154.5 -62.5q59 0 108.5 12t84.5 29q39 18 71 43l88 -203q-47 -31 -104 -53q-49 -20 -114.5 -35.5t-143.5 -15.5q-43 0 -93 8t-100.5 27.5t-98.5 52t-87 84.5q-20 -25 -52 -54.5t-75 -57.5 t-97.5 -46.5t-117.5 -18.5q-53 0 -107.5 17.5t-97.5 55.5t-70.5 100.5t-27.5 154.5zM317 299q0 -37 10.5 -59.5t25 -33.5t31.5 -15.5t32 -4.5q53 0 91 19.5t60 44.5q27 29 45 65v172q-80 0 -136 -15t-91 -40.5t-51.5 -60.5t-16.5 -72zM885 659h323q4 61 -8 113 q-10 43 -40 79t-93 36q-82 0 -132 -53.5t-50 -174.5z" />
<glyph unicode="&#xe7;" horiz-adv-x="1038" d="M106 524q0 170 55.5 279.5t135.5 172t168 85t151 20.5q68 -4 122.5 -18t92.5 -31q45 -18 78 -41l-90 -213q-23 20 -53 37q-27 14 -62.5 26.5t-80.5 16.5q-49 4 -96.5 -12.5t-82 -55t-56 -102t-21.5 -153.5q0 -92 19.5 -156t51 -105t74.5 -59t92 -18q53 0 95 12t73 29 q37 18 64 43l88 -201q-41 -27 -93 -49q-43 -18 -103 -36t-134 -22q-70 -4 -155 17.5t-158.5 83t-124 171t-50.5 279.5zM305 -344l39 113q49 -23 90 -35q35 -10 68.5 -11.5t45.5 21.5q10 23 8.5 39t-12 28.5t-28 20.5t-37.5 12q-47 10 -113 9l58 188h196l-39 -129 q43 0 78 -14q29 -12 52.5 -44t19.5 -92q-2 -53 -21.5 -84.5t-50.5 -49t-68.5 -22.5t-76.5 -1q-92 8 -209 51z" />
<glyph unicode="&#xe8;" horiz-adv-x="1067" d="M80 524q0 170 47 278.5t115.5 170t147.5 85t142 23.5q117 0 198 -44t131 -123.5t69.5 -193.5t13.5 -251h-602q14 -145 80.5 -208.5t155.5 -63.5q59 0 107 12t83 29q39 18 72 43l88 -201q-47 -31 -103 -53q-47 -20 -113.5 -37t-144.5 -17q-70 0 -154.5 22.5t-158.5 83 t-124 168t-50 277.5zM261 1257l131 213l413 -207l-90 -153zM346 655h326q4 61 -8 113q-10 41 -41 77t-95 36q-80 0 -131 -52.5t-51 -173.5z" />
<glyph unicode="&#xe9;" horiz-adv-x="1067" d="M80 524q0 170 47 278.5t115.5 170t147.5 85t142 23.5q117 0 198 -44t131 -123.5t69.5 -193.5t13.5 -251h-602q14 -145 80.5 -208.5t155.5 -63.5q59 0 107 12t83 29q39 18 72 43l88 -201q-47 -31 -103 -53q-47 -20 -113.5 -37t-144.5 -17q-70 0 -154.5 22.5t-158.5 83 t-124 168t-50 277.5zM264 1245l414 207l129 -213l-452 -147zM346 655h326q4 61 -8 113q-10 41 -41 77t-95 36q-80 0 -131 -52.5t-51 -173.5z" />
<glyph unicode="&#xea;" horiz-adv-x="1067" d="M80 524q0 170 47 278.5t115.5 170t147.5 85t142 23.5q117 0 198 -44t131 -123.5t69.5 -193.5t13.5 -251h-602q14 -145 80.5 -208.5t155.5 -63.5q59 0 107 12t83 29q39 18 72 43l88 -201q-47 -31 -103 -53q-47 -20 -113.5 -37t-144.5 -17q-70 0 -154.5 22.5t-158.5 83 t-124 168t-50 277.5zM166 1198l369 225l367 -223l-95 -139l-270 108l-270 -108zM346 655h326q4 61 -8 113q-10 41 -41 77t-95 36q-80 0 -131 -52.5t-51 -173.5z" />
<glyph unicode="&#xeb;" horiz-adv-x="1067" d="M80 524q0 170 47 278.5t115.5 170t147.5 85t142 23.5q117 0 198 -44t131 -123.5t69.5 -193.5t13.5 -251h-602q14 -145 80.5 -208.5t155.5 -63.5q59 0 107 12t83 29q39 18 72 43l88 -201q-47 -31 -103 -53q-47 -20 -113.5 -37t-144.5 -17q-70 0 -154.5 22.5t-158.5 83 t-124 168t-50 277.5zM190 1255q0 57 41 98.5t98 41.5q59 0 100.5 -41.5t41.5 -98.5t-41 -98t-101 -41q-57 0 -98 41t-41 98zM346 655h326q4 61 -8 113q-10 41 -41 77t-95 36q-80 0 -131 -52.5t-51 -173.5zM602 1255q0 57 40 98.5t99 41.5t99 -41.5t40 -98.5t-40 -98t-99 -41 t-99 41t-40 98z" />
<glyph unicode="&#xec;" horiz-adv-x="675" d="M13 1233l131 213l413 -207l-90 -153zM37 856v205h436v-1061h-252v856h-184z" />
<glyph unicode="&#xed;" horiz-adv-x="675" d="M2 1230l414 207l129 -213l-452 -147zM37 856v205h436v-1061h-252v856h-184z" />
<glyph unicode="&#xee;" horiz-adv-x="675" d="M-27 1223l369 225l367 -223l-95 -139l-270 108l-270 -108zM37 856v205h436v-1061h-252v856h-184z" />
<glyph unicode="&#xef;" horiz-adv-x="675" d="M-45 1255q0 57 41 98.5t98 41.5q59 0 100.5 -41.5t41.5 -98.5t-41 -98t-101 -41q-57 0 -98 41t-41 98zM37 856v205h436v-1061h-252v856h-184zM367 1255q0 57 40 98.5t99 41.5t99 -41.5t40 -98.5t-40 -98t-99 -41t-99 41t-40 98z" />
<glyph unicode="&#xf0;" />
<glyph unicode="&#xf1;" horiz-adv-x="1155" d="M182 0v1061h252v-94q14 14 38 33.5t52.5 37t63.5 29.5t74 16q154 16 231.5 -76t77.5 -302v-705h-252v715q0 35 -4 63.5t-15.5 49t-33 28.5t-54.5 2q-29 -6 -56.5 -19.5t-51 -30.5t-42 -33.5t-28.5 -26.5v-748h-252zM203 1215q16 66 49 119q29 45 75 82.5t118 37.5 q57 0 87.5 -17t50 -36.5t39 -37t54.5 -17.5t51.5 18.5t24.5 40.5q8 27 8 62l190 -56q-20 -80 -55 -141q-29 -53 -77 -97t-119 -44q-53 0 -87 17.5t-59.5 37t-49.5 36.5t-54 17q-23 0 -36 -17t-22 -38q-8 -23 -12 -53z" />
<glyph unicode="&#xf2;" horiz-adv-x="1099" d="M100 528q0 117 31 218.5t88 176t141 118.5t191 44q111 0 194.5 -44t140 -118.5t85 -176t28.5 -218.5q0 -115 -32.5 -216t-92 -177t-142.5 -120t-181 -44q-106 0 -189 44t-141.5 120t-89.5 177.5t-31 215.5zM277 1245l131 213l413 -207l-90 -153zM352 528q0 -70 13.5 -131 t39 -107t62.5 -73t84 -27q43 0 80 27t62.5 73t40 107.5t14.5 130.5q0 70 -12.5 132.5t-37 108.5t-61.5 72.5t-86 26.5q-47 0 -84 -26.5t-62.5 -72.5t-39 -108.5t-13.5 -132.5z" />
<glyph unicode="&#xf3;" horiz-adv-x="1099" d="M100 528q0 117 31 218.5t88 176t141 118.5t191 44q111 0 194.5 -44t140 -118.5t85 -176t28.5 -218.5q0 -115 -32.5 -216t-92 -177t-142.5 -120t-181 -44q-106 0 -189 44t-141.5 120t-89.5 177.5t-31 215.5zM278 1245l414 207l129 -213l-452 -147zM352 528 q0 -70 13.5 -131t39 -107t62.5 -73t84 -27q43 0 80 27t62.5 73t40 107.5t14.5 130.5q0 70 -12.5 132.5t-37 108.5t-61.5 72.5t-86 26.5q-47 0 -84 -26.5t-62.5 -72.5t-39 -108.5t-13.5 -132.5z" />
<glyph unicode="&#xf4;" horiz-adv-x="1099" d="M100 528q0 117 31 218.5t88 176t141 118.5t191 44q111 0 194.5 -44t140 -118.5t85 -176t28.5 -218.5q0 -115 -32.5 -216t-92 -177t-142.5 -120t-181 -44q-106 0 -189 44t-141.5 120t-89.5 177.5t-31 215.5zM182 1198l369 225l367 -223l-95 -139l-270 108l-270 -108z M352 528q0 -70 13.5 -131t39 -107t62.5 -73t84 -27q43 0 80 27t62.5 73t40 107.5t14.5 130.5q0 70 -12.5 132.5t-37 108.5t-61.5 72.5t-86 26.5q-47 0 -84 -26.5t-62.5 -72.5t-39 -108.5t-13.5 -132.5z" />
<glyph unicode="&#xf5;" horiz-adv-x="1099" d="M100 528q0 117 31 218.5t88 176t141 118.5t191 44q111 0 194.5 -44t140 -118.5t85 -176t28.5 -218.5q0 -115 -32.5 -216t-92 -177t-142.5 -120t-181 -44q-106 0 -189 44t-141.5 120t-89.5 177.5t-31 215.5zM176 1192q16 66 49 119q29 45 75 82.5t118 37.5q57 0 87.5 -17 t50 -36.5t39 -37t54.5 -17.5t51.5 18.5t24.5 40.5q8 27 8 62l190 -56q-20 -80 -55 -141q-29 -53 -77 -97t-119 -44q-53 0 -87 17.5t-59.5 37t-49.5 36.5t-54 17q-23 0 -36 -17t-22 -38q-8 -23 -12 -53zM352 528q0 -70 13.5 -131t39 -107t62.5 -73t84 -27q43 0 80 27t62.5 73 t40 107.5t14.5 130.5q0 70 -12.5 132.5t-37 108.5t-61.5 72.5t-86 26.5q-47 0 -84 -26.5t-62.5 -72.5t-39 -108.5t-13.5 -132.5z" />
<glyph unicode="&#xf6;" horiz-adv-x="1099" d="M100 528q0 117 31 218.5t88 176t141 118.5t191 44q111 0 194.5 -44t140 -118.5t85 -176t28.5 -218.5q0 -115 -32.5 -216t-92 -177t-142.5 -120t-181 -44q-106 0 -189 44t-141.5 120t-89.5 177.5t-31 215.5zM207 1255q0 57 41 98.5t98 41.5q59 0 100.5 -41.5t41.5 -98.5 t-41 -98t-101 -41q-57 0 -98 41t-41 98zM352 528q0 -70 13.5 -131t39 -107t62.5 -73t84 -27q43 0 80 27t62.5 73t40 107.5t14.5 130.5q0 70 -12.5 132.5t-37 108.5t-61.5 72.5t-86 26.5q-47 0 -84 -26.5t-62.5 -72.5t-39 -108.5t-13.5 -132.5zM619 1255q0 57 40 98.5 t99 41.5t99 -41.5t40 -98.5t-40 -98t-99 -41t-99 41t-40 98z" />
<glyph unicode="&#xf7;" horiz-adv-x="1189" d="M27 641v195h1132v-195h-1132zM432 432q0 55 45 94t111 39t110.5 -39t44.5 -94t-45 -94t-110 -39q-66 0 -111 39t-45 94zM432 1044q0 55 45 94.5t111 39.5t110.5 -39.5t44.5 -94.5t-45 -94t-110 -39q-66 0 -111 39t-45 94z" />
<glyph unicode="&#xf8;" horiz-adv-x="1099" d="M109 547q0 115 30.5 216t88 177t140.5 120t189 44q102 0 186 -39l52 88l168 -90l-72 -119q59 -78 88 -179t29 -218q0 -115 -33 -216.5t-92.5 -177t-142.5 -119.5t-183 -44q-55 0 -105.5 13t-93.5 36l-51 -88l-164 88l74 127q-53 76 -80.5 173t-27.5 208zM360 547 q0 -31 2.5 -60.5t8.5 -58.5l258 440q-31 16 -72 17q-47 0 -84 -27t-61.5 -73t-38 -107t-13.5 -131zM475 236q33 -27 82 -27q43 0 80 26.5t63.5 72.5t41 107.5t14.5 131.5q0 82 -15 141z" />
<glyph unicode="&#xf9;" horiz-adv-x="1148" d="M156 393v668h254v-715q0 -70 22.5 -109.5t89.5 -25.5q29 6 55.5 18.5t49 27.5t40 29.5t27.5 24.5v750h250v-1061h-250v94q-16 -16 -38.5 -34.5t-52.5 -34t-64.5 -26.5t-73.5 -11q-137 0 -223 98t-86 307zM302 1245l131 213l413 -207l-90 -153z" />
<glyph unicode="&#xfa;" horiz-adv-x="1148" d="M156 393v668h254v-715q0 -70 22.5 -109.5t89.5 -25.5q29 6 55.5 18.5t49 27.5t40 29.5t27.5 24.5v750h250v-1061h-250v94q-16 -16 -38.5 -34.5t-52.5 -34t-64.5 -26.5t-73.5 -11q-137 0 -223 98t-86 307zM303 1241l414 207l129 -213l-452 -147z" />
<glyph unicode="&#xfb;" horiz-adv-x="1148" d="M156 393v668h254v-715q0 -70 22.5 -109.5t89.5 -25.5q29 6 55.5 18.5t49 27.5t40 29.5t27.5 24.5v750h250v-1061h-250v94q-16 -16 -38.5 -34.5t-52.5 -34t-64.5 -26.5t-73.5 -11q-137 0 -223 98t-86 307zM207 1225l369 225l367 -223l-95 -139l-270 108l-270 -108z" />
<glyph unicode="&#xfc;" horiz-adv-x="1148" d="M156 393v668h254v-715q0 -70 22.5 -109.5t89.5 -25.5q29 6 55.5 18.5t49 27.5t40 29.5t27.5 24.5v750h250v-1061h-250v94q-16 -16 -38.5 -34.5t-52.5 -34t-64.5 -26.5t-73.5 -11q-137 0 -223 98t-86 307zM205 1255q0 57 41 98.5t98 41.5q59 0 100.5 -41.5t41.5 -98.5 t-41 -98t-101 -41q-57 0 -98 41t-41 98zM617 1255q0 57 40 98.5t99 41.5t99 -41.5t40 -98.5t-40 -98t-99 -41t-99 41t-40 98z" />
<glyph unicode="&#xfd;" horiz-adv-x="1009" d="M10 -299l80 205q27 -16 51 -27q23 -10 48.5 -18t52.5 -8q41 0 66.5 31.5t41.5 70.5q18 45 31 102l-340 1004h264l201 -651l203 651h260q-102 -293 -185 -533q-35 -102 -70.5 -203.5t-64 -186.5t-50 -146.5t-28.5 -83.5q-14 -43 -39.5 -92t-64.5 -91t-90 -69t-115 -27 q-49 0 -94 10.5t-80 24.5q-41 16 -78 37zM235 1237l414 207l129 -213l-452 -147z" />
<glyph unicode="&#xfe;" horiz-adv-x="1112" d="M188 -2v1063h252v-184q274 18 406.5 -54.5t132.5 -265.5q0 -96 -29.5 -164.5t-94 -111.5t-167 -59.5t-248.5 -10.5v-213h-252zM440 436h140q39 0 77.5 23.5t38.5 95.5q0 59 -39 78.5t-82 19.5h-135v-217z" />
<glyph unicode="&#xff;" horiz-adv-x="1009" d="M10 -299l80 205q27 -16 51 -27q23 -10 48.5 -18t52.5 -8q41 0 66.5 31.5t41.5 70.5q18 45 31 102l-340 1004h264l201 -651l203 651h260q-102 -293 -185 -533q-35 -102 -70.5 -203.5t-64 -186.5t-50 -146.5t-28.5 -83.5q-14 -43 -39.5 -92t-64.5 -91t-90 -69t-115 -27 q-49 0 -94 10.5t-80 24.5q-41 16 -78 37zM162 1255q0 57 41 98.5t98 41.5q59 0 100.5 -41.5t41.5 -98.5t-41 -98t-101 -41q-57 0 -98 41t-41 98zM574 1255q0 57 40 98.5t99 41.5t99 -41.5t40 -98.5t-40 -98t-99 -41t-99 41t-40 98z" />
<glyph unicode="&#x152;" horiz-adv-x="1148" d="M35 680q0 193 34.5 326t96 216t142.5 118.5t173 35.5q45 0 86 -7t82 -23h455v-209h-313v-318h280v-223h-280v-373h313v-223h-504q-55 -14 -119 -14q-92 0 -173 33.5t-142.5 114.5t-96 214t-34.5 332zM315 680q0 -133 13.5 -221t36 -141.5t52 -76t64.5 -22.5h12.5t14.5 2 q8 2 14 4v914q-6 0 -14 2q-6 0 -14.5 1t-12.5 1q-39 0 -69.5 -24.5t-52 -79t-33 -142.5t-11.5 -217z" />
<glyph unicode="&#x153;" horiz-adv-x="1716" d="M104 535q0 117 30 220t87.5 180t141 122t190.5 45q106 0 186 -40t138 -110q37 43 78.5 73t84.5 46t85 23.5t79 7.5q117 0 198 -44t131 -126t69.5 -195.5t13.5 -255.5h-602q14 -150 80.5 -213t154.5 -63q59 0 107.5 13t83.5 30q39 18 71 43l88 -207q-47 -31 -102 -53 q-47 -20 -113.5 -37t-144.5 -17q-41 0 -88 7.5t-95 26t-94.5 48t-84.5 74.5q-59 -76 -142.5 -120t-181.5 -44q-106 0 -189 44t-140.5 121t-88.5 180.5t-31 220.5zM354 535q0 -72 13.5 -134.5t39 -108.5t62.5 -74t84 -28q43 0 80 28t63.5 74t41 108.5t14.5 134.5t-12.5 134 t-38 109t-62.5 75t-86 28q-47 0 -84 -28t-62.5 -75t-39 -109.5t-13.5 -133.5zM1018 670h325q4 63 -8 114q-10 43 -40.5 80t-94.5 37q-80 0 -131 -54t-51 -177z" />
<glyph unicode="&#x178;" horiz-adv-x="1089" d="M43 1323l276 51l228 -590l225 590l275 -53l-359 -789v-532h-276v530zM203 1556q0 57 41 98.5t98 41.5q59 0 100.5 -41.5t41.5 -98.5t-41 -98t-101 -41q-57 0 -98 41t-41 98zM615 1556q0 57 40 98.5t99 41.5t99 -41.5t40 -98.5t-40 -98t-99 -41t-99 41t-40 98z" />
<glyph unicode="&#x2c6;" d="M141 1198l369 225l367 -223l-95 -139l-270 108l-270 -108z" />
<glyph unicode="&#x2dc;" d="M127 1147q16 66 49 119q29 45 75 82.5t118 37.5q57 0 87.5 -17t50 -36.5t39 -37t54.5 -17.5t51.5 18.5t24.5 40.5q8 27 8 62l190 -56q-20 -80 -55 -141q-29 -53 -77 -97t-119 -44q-53 0 -87 17.5t-59.5 37t-49.5 36.5t-54 17q-23 0 -36 -17t-22 -38q-8 -23 -12 -53z" />
<glyph unicode="&#x2000;" horiz-adv-x="865" />
<glyph unicode="&#x2001;" horiz-adv-x="1731" />
<glyph unicode="&#x2002;" horiz-adv-x="865" />
<glyph unicode="&#x2003;" horiz-adv-x="1731" />
<glyph unicode="&#x2004;" horiz-adv-x="577" />
<glyph unicode="&#x2005;" horiz-adv-x="432" />
<glyph unicode="&#x2006;" horiz-adv-x="288" />
<glyph unicode="&#x2007;" horiz-adv-x="288" />
<glyph unicode="&#x2008;" horiz-adv-x="216" />
<glyph unicode="&#x2009;" horiz-adv-x="346" />
<glyph unicode="&#x200a;" horiz-adv-x="96" />
<glyph unicode="&#x2010;" horiz-adv-x="1132" d="M272 442v197h602v-197h-602z" />
<glyph unicode="&#x2011;" horiz-adv-x="1132" d="M272 442v197h602v-197h-602z" />
<glyph unicode="&#x2012;" horiz-adv-x="1132" d="M272 442v197h602v-197h-602z" />
<glyph unicode="&#x2013;" d="M68 434v215h886v-215h-886z" />
<glyph unicode="&#x2014;" horiz-adv-x="1302" d="M37 434v215h1231v-215h-1231z" />
<glyph unicode="&#x2018;" horiz-adv-x="679" d="M109 887q-6 70 0 144.5t40.5 142t104.5 125t186 92.5l121 -166q-49 4 -84 -29q-29 -29 -47 -99.5t-2 -209.5h-319z" />
<glyph unicode="&#x2019;" horiz-adv-x="675" d="M43 1022q49 -6 84 29q29 29 47.5 98.5t1.5 210.5h320q6 -72 -0.5 -145.5t-41 -141t-104 -125t-186.5 -92.5z" />
<glyph unicode="&#x201a;" d="M242 29q49 -6 84 28q29 29 46 98.5t1 211.5h319q6 -72 0 -146t-41 -141.5t-104.5 -124.5t-186.5 -92z" />
<glyph unicode="&#x201c;" horiz-adv-x="1026" d="M27 887q-6 70 0 144.5t40.5 142t104.5 125t186 92.5l121 -166q-49 4 -84 -29q-29 -29 -47 -99.5t-2 -209.5h-319zM465 887q-6 70 0 144.5t41 142t104.5 125t186.5 92.5l118 -166q-49 4 -84 -29q-29 -29 -47 -99.5t0 -209.5h-319z" />
<glyph unicode="&#x201d;" horiz-adv-x="1026" d="M74 1018q49 -4 84 31q29 29 47 98.5t2 208.5h319q6 -70 0 -143.5t-40.5 -142.5t-104.5 -125t-186 -93zM512 1018q49 -4 84 31q29 29 46 98.5t1 208.5h320q6 -70 -0.5 -143.5t-41 -142.5t-104 -125t-186.5 -93z" />
<glyph unicode="&#x201e;" horiz-adv-x="1273" d="M133 29q49 -6 84 28q29 29 47.5 98.5t1.5 211.5h320q6 -72 0 -146t-41 -141.5t-104.5 -124.5t-186.5 -92zM625 29q49 -6 84 28q29 29 47 98.5t2 211.5h319q6 -72 0 -146t-41 -141.5t-104.5 -124.5t-186.5 -92z" />
<glyph unicode="&#x2022;" d="M195 530q0 61 24.5 113.5t67.5 92.5t100 62.5t123 22.5q63 0 120.5 -22.5t100.5 -62.5t67.5 -92.5t24.5 -113.5q0 -59 -24.5 -112t-67.5 -92t-100.5 -61.5t-120.5 -22.5q-66 0 -123 22.5t-100 61.5t-67.5 92t-24.5 112z" />
<glyph unicode="&#x2026;" horiz-adv-x="1341" d="M0 0v340h326v-340h-326zM508 0v340h326v-340h-326zM1016 0v340h325v-340h-325z" />
<glyph unicode="&#x202f;" horiz-adv-x="346" />
<glyph unicode="&#x2039;" horiz-adv-x="1185" d="M184 678l617 543l188 -183l-436 -360l436 -365l-188 -182z" />
<glyph unicode="&#x203a;" horiz-adv-x="1189" d="M211 313l436 365l-436 360l188 183l617 -543l-617 -547z" />
<glyph unicode="&#x205f;" horiz-adv-x="432" />
<glyph unicode="&#x20ac;" horiz-adv-x="1196" d="M100 446v170h93q-2 18 -2.5 37t-0.5 39v35h-90v170h107q39 229 159.5 350t295.5 121q123 0 204.5 -45t130.5 -98q57 -63 90 -142l-239 -127q-14 51 -37 91q-20 35 -52 62.5t-79 27.5q-25 0 -53.5 -8.5t-55 -34t-49 -72.5t-35.5 -125h347v-170h-361q-2 -10 -2 -18.5v-18.5 q0 -20 1 -37.5t1 -36.5h361v-170h-345q12 -70 32 -114.5t43.5 -70t48 -35t49.5 -9.5q53 0 95 29.5t70 64.5q35 41 62 97l217 -121q-41 -84 -105 -150q-53 -57 -138 -103t-201 -46q-186 0 -299 120.5t-154 337.5h-109z" />
<glyph unicode="&#x2122;" horiz-adv-x="1300" d="M31 1196v188h501v-188h-137v-405h-221v405h-143zM555 795l6 589h227l115 -278l119 278h229v-589h-180l8 264l-104 -260h-156l-96 260l18 -264h-186z" />
<glyph unicode="&#x25fc;" horiz-adv-x="1064" d="M0 0v1065h1065v-1065h-1065z" />
<glyph unicode="&#xfb01;" horiz-adv-x="1261" d="M35 856v205h174v33q0 63 15.5 122.5t51 104.5t93 72.5t141.5 27.5q53 0 103.5 -10t91.5 -20q45 -14 86 -31l-54 -172q-31 14 -63 26q-29 10 -65 18.5t-70 8.5q-35 0 -56.5 -31.5t-21.5 -103.5v-45h608v-1061h-252v856h-356v-856h-252v856h-174zM807 1280q0 57 41 97 t98 40q59 0 100 -40t41 -97q0 -59 -40.5 -99t-100.5 -40q-57 0 -98 40t-41 99z" />
<glyph unicode="&#xfb02;" horiz-adv-x="1323" d="M35 856v205h174v33q0 63 15.5 122.5t51 104.5t94 72.5t142.5 27.5q53 0 103.5 -10t89.5 -20q45 -14 86 -31l-54 -172q-31 14 -63 26q-29 10 -64.5 18.5t-70.5 8.5t-56.5 -31.5t-21.5 -103.5v-45h244v-205h-244v-856h-252v856h-174zM842 285v1112h250v-1123q0 -18 4 -33.5 t16 -23.5t34.5 -7t61.5 19l86 -176q-27 -20 -59 -35q-29 -14 -69 -24t-87 -10q-117 0 -177 71.5t-60 229.5z" />
</font>
</defs>
</svg>
