<?xml version="1.0" standalone="no"?>
<!DOCTYPE svg PUBLIC "-//W3C//DTD SVG 1.1//EN" "http://www.w3.org/Graphics/SVG/1.1/DTD/svg11.dtd" >
<svg xmlns="http://www.w3.org/2000/svg">
<metadata></metadata>
<defs>
<font id="theacademy_italicitalic" horiz-adv-x="1019" >
<font-face units-per-em="2048" ascent="1434" descent="-614" />
<missing-glyph horiz-adv-x="532" />
<glyph horiz-adv-x="0" />
<glyph horiz-adv-x="682" />
<glyph horiz-adv-x="0" />
<glyph unicode=" "  horiz-adv-x="532" />
<glyph unicode="&#x09;" horiz-adv-x="532" />
<glyph unicode="&#xa0;" horiz-adv-x="532" />
<glyph unicode="!" horiz-adv-x="804" d="M195 0l63 301h203l-64 -301h-202zM305 408l166 950h223l-241 -950h-148z" />
<glyph unicode="&#x22;" horiz-adv-x="956" d="M360 874v250l54 252h202l-53 -252l-108 -250h-95zM678 874v250l53 252h203l-53 -252l-109 -250h-94z" />
<glyph unicode="#" horiz-adv-x="1153" d="M23 463l16 88h274l56 319h-273l17 91h272l123 675h106l-122 -675h262l125 675h106l-123 -675h275l-19 -91h-272l-58 -319h273l-17 -88h-272l-121 -660h-108l121 660h-261l-118 -660h-109l121 660h-274zM418 551h262l57 319h-262z" />
<glyph unicode="$" d="M205 348l135 84q6 -35 27 -65q16 -27 44.5 -52.5t75.5 -38.5l78 369h6q-96 29 -155.5 81t-59.5 142q0 16 2 31.5t7 32.5q12 57 44.5 104t77.5 81t98.5 55.5t104.5 29.5h-6l37 172h153l-36 -172h-7q72 -12 120 -40.5t77 -57.5q35 -35 55 -76l-122 -88q-10 31 -31 57 q-16 23 -45 45.5t-74 34.5l-72 -338h-6q55 -14 102.5 -33.5t82 -46t55 -64.5t20.5 -89q0 -35 -8 -68q-29 -129 -134.5 -201.5t-244.5 -89.5h8l-36 -167h-154l37 167h6q-80 12 -131 45t-80 68q-35 39 -51 88zM524 926q-10 -43 1.5 -79t70.5 -65l61 295q-35 -10 -58.5 -27.5 t-38.5 -39t-23.5 -44t-12.5 -40.5zM641 272q51 8 84 26.5t54.5 41t31.5 49t16 51.5q12 59 -18.5 101.5t-95.5 66.5z" />
<glyph unicode="%" d="M70 47l923 1180q-14 -4 -40.5 -10.5t-65.5 -6.5q-43 0 -76 13q4 -49 -6 -105q-29 -125 -111 -189.5t-180 -64.5q-82 0 -131 46t-49 134q0 39 8 74q27 123 104.5 189.5t176.5 66.5q31 0 58.5 -6t49.5 -20h-2q35 -14 88 -26.5t127 -12.5q53 0 95 10t71 22q35 14 61 33 l70 -45l-1053 -1352zM473 1057q0 -92 66 -92q41 0 75.5 38.5t51.5 114.5q4 18 6 32.5t2 29.5q0 47 -20.5 69.5t-51.5 22.5q-41 0 -73 -40t-48 -114q-4 -16 -6 -31.5t-2 -29.5zM492 160q0 39 8 73q27 123 104.5 189.5t175.5 66.5q82 0 136.5 -43t54.5 -137q0 -16 -2 -35.5 t-6 -40.5q-27 -125 -110 -189t-181 -64q-82 0 -131 46t-49 134zM631 172q0 -92 65 -92q41 0 76 39t51 114q4 18 6 34t2 30q0 47 -19 68.5t-50 21.5q-41 0 -74 -40t-49 -114q-4 -16 -6 -31.5t-2 -29.5z" />
<glyph unicode="&#x26;" horiz-adv-x="958" d="M188 274q20 94 89 172t174 136h-2q-29 39 -50 86q-16 39 -26.5 90t2.5 108q10 49 36.5 98.5t68.5 89.5t98.5 64.5t128.5 24.5q104 0 164.5 -62.5t60.5 -154.5q0 -29 -6 -60q-10 -49 -33 -88t-49.5 -69.5t-53 -51t-45.5 -32.5l-8 -7q-10 -6 -27.5 -17t-33.5 -21 q-20 -12 -43 -27h2q35 -70 68.5 -134.5t68.5 -133.5q16 20 48 73.5t48 128.5l144 -30q-12 -35 -29.5 -74t-40 -78t-49.5 -75.5t-57 -67.5q14 -29 29.5 -58.5t29.5 -58.5l-129 -80l-51 96q-10 -6 -35 -20t-59.5 -27.5t-77.5 -23.5t-90 -10q-80 0 -134.5 28.5t-87 71.5t-43 95 t-0.5 99zM350 202q12 -36 35 -56.5t52.5 -28.5t51.5 -8q31 0 78 15t95 52l-158 305q-6 -4 -28.5 -18t-47.5 -39t-47.5 -57.5t-30.5 -75.5q-12 -53 0 -89zM521 794.5q9 -38.5 22 -69.5q14 -37 37 -68q12 6 40.5 22.5t61.5 43.5t60.5 60.5t37.5 76.5q16 74 -12.5 114t-93.5 40 q-16 0 -39 -6.5t-44.5 -21.5t-41 -42t-27.5 -70q-10 -41 -1 -79.5z" />
<glyph unicode="'" horiz-adv-x="612" d="M322 1124l53 252h203l-54 -252l-108 -250h-92z" />
<glyph unicode="(" horiz-adv-x="716" d="M150 436q0 59 6 123t22 135q39 184 120 322.5t161 232.5q94 111 200 189l68 -84q-82 -63 -158 -160q-66 -82 -131 -205t-100 -293q-16 -78 -23.5 -144.5t-7.5 -125.5q0 -117 20.5 -198t45.5 -134q29 -61 65 -102l-104 -86q-53 51 -92 129q-35 66 -63.5 165t-28.5 236z " />
<glyph unicode=")" horiz-adv-x="716" d="M96 -6q84 63 160 164q66 86 132.5 219t107.5 321q14 66 19 122.5t5 107.5q0 111 -21.5 190.5t-45.5 132.5q-31 61 -68 105l98 80h11q51 -55 92 -131q35 -66 63.5 -162t28.5 -225q0 -102 -25 -222q-43 -205 -125 -352t-163 -246q-96 -113 -203 -190z" />
<glyph unicode="*" d="M383 965l39 184l205 -23q-23 37 -50.5 77t-50.5 77l174 106l66 -186q35 47 71.5 94t71.5 92l127 -106l-166 -154l220 23l-39 -184l-209 20q25 -35 51.5 -76t48.5 -75l-172 -109l-65 188q-35 -45 -72 -94t-72 -92l-129 107l166 151z" />
<glyph unicode="+" horiz-adv-x="1140" d="M23 688v90h497v496h105v-496h497v-90h-497v-498h-105v498h-497z" />
<glyph unicode="," horiz-adv-x="522" d="M119 -27q31 16 59 47q25 27 49.5 71t40.5 112l21 98h205q-2 -16 -4.5 -30.5t-4.5 -28.5q-23 -98 -74 -166t-106 -113q-66 -53 -139 -88z" />
<glyph unicode="-" horiz-adv-x="841" d="M193 465l26 129h481l-26 -129h-481z" />
<glyph unicode="." horiz-adv-x="516" d="M225 0l64 301h203l-64 -301h-203z" />
<glyph unicode="/" d="M145 -55l605 1575h114l-602 -1575h-117z" />
<glyph unicode="0" d="M205 303q0 53 7 109.5t19 109.5l23 113q10 39 19.5 81t17.5 83q33 160 80 269.5t108.5 177t140.5 98t179 30.5q152 0 225.5 -68.5t73.5 -234.5q0 -55 -9.5 -122.5t-25.5 -149.5q-8 -41 -15.5 -83t-17.5 -81l-22 -113q-20 -92 -55 -188t-93.5 -175t-141.5 -129t-200 -50 h-31q-82 0 -136 25.5t-87 70.5t-46 103.5t-13 123.5zM367 307q0 -106 39.5 -152t123.5 -46q61 0 109.5 23.5t86.5 76.5t68.5 137t57.5 207l74 348q10 41 13 77t3 64q0 61 -14.5 100.5t-39 62t-55 31.5t-61.5 9q-39 0 -82 -14t-84 -53t-75.5 -105.5t-57.5 -171.5l-74 -348 q-33 -145 -32 -246z" />
<glyph unicode="1" d="M117 0l24 121h332l227 1067q-63 -23 -132.5 -48.5t-133.5 -47.5l-18 127l479 167l-268 -1265q74 0 150.5 -1t150.5 -1l-25 -119h-786z" />
<glyph unicode="2" d="M123 0l24 123l316 315q61 61 121.5 123t113 115t91 94t57.5 59q61 72 81.5 117t28.5 80q8 33 9 68q0 82 -46.5 117.5t-113.5 35.5q-41 0 -85 -12t-87 -44t-83 -86t-73 -138l-139 20h-6q27 74 68.5 144.5t102 125t139.5 87t179 32.5q82 0 140.5 -22.5t93.5 -59.5t51 -85 t16 -99q0 -45 -8 -80q-14 -68 -61 -146.5t-152 -185.5q-27 -27 -64.5 -65.5t-83.5 -84.5t-95.5 -96.5t-96.5 -99.5q-113 -113 -237 -239q147 2 297.5 5t298.5 5l-25 -123h-772z" />
<glyph unicode="3" d="M131 -20l29 129q123 0 233.5 17t199.5 61t155.5 120t101.5 193q12 43 12 73q0 47 -22.5 77t-58.5 47.5t-80 23.5t-87 6q-35 0 -65.5 -3t-56.5 -7q-31 -4 -58 -8l25 110l506 414h-586l27 123h770l-25 -121l-483 -406q16 2 29.5 3.5t29.5 1.5q59 0 111.5 -14.5t92.5 -45.5 t63.5 -79t23.5 -115q0 -23 -2 -45.5t-8 -49.5q-23 -104 -97.5 -199.5t-189.5 -166t-265.5 -109.5t-324.5 -30z" />
<glyph unicode="4" d="M190 340l422 1046l146 -40l-363 -883h353l145 690h154l-146 -690h113l-27 -123h-113l-71 -340h-154l72 340h-531z" />
<glyph unicode="5" d="M117 -20l28 129q23 -2 46.5 -2.5t41.5 -0.5q145 0 252 33t178.5 87.5t112.5 125t58 148.5q4 18 6 33.5t2 29.5q0 49 -17.5 81t-45 51.5t-62.5 27.5t-68 8q-37 0 -80 -13t-82 -30q-45 -18 -88 -41l-92 29l144 680h712l-26 -123h-559l-91 -424q23 10 78.5 30.5t126.5 20.5 q55 0 109.5 -15.5t99.5 -48t72.5 -83.5t27.5 -125q0 -37 -10 -88q-18 -92 -76.5 -185.5t-158 -168t-240.5 -122t-328 -47.5q-16 0 -35.5 1.5t-35.5 1.5z" />
<glyph unicode="6" d="M221 338q0 129 35 293q33 152 79 286t112.5 235t156.5 160.5t207 59.5q86 0 143.5 -19.5t92.5 -41.5q41 -27 65 -60l-108 -121q-25 33 -54 58q-27 23 -61.5 40t-81.5 17t-99.5 -22.5t-100.5 -76.5t-90 -143.5t-71 -222.5l-2 -10q41 29 116 60.5t167 31.5q123 0 204 -76.5 t81 -220.5q0 -53 -13 -110q-20 -98 -62 -184.5t-104.5 -151t-146.5 -102t-188 -37.5q-150 0 -213.5 97t-63.5 261zM373 319q0 -98 36 -154t128 -56q63 0 112 26.5t86 69.5t60.5 99t35.5 116q6 33 11.5 65.5t5.5 67.5q0 37 -7 69.5t-26.5 57.5t-52.5 39t-82 14q-41 0 -81 -14 t-76 -33.5t-65.5 -42t-47.5 -39.5h2q-16 -80 -27.5 -152.5t-11.5 -132.5z" />
<glyph unicode="7" d="M205 29l796 1204h-565l27 123h778l-913 -1389z" />
<glyph unicode="8" d="M178 270q0 16 2 36t6 38q18 86 75.5 151.5t119.5 110.5q72 53 160 88q-2 2 -34 25.5t-66.5 66.5t-57.5 103.5t-6 138.5q16 78 60 142.5t103.5 109.5t128 69.5t134.5 24.5q127 0 207 -70.5t80 -193.5q0 -18 -2.5 -38.5t-6.5 -43.5q-16 -78 -64 -139.5t-102 -104.5 q-61 -51 -133 -90q6 -4 40 -20.5t71 -50t66.5 -86t29.5 -123.5q0 -37 -8 -70q-20 -96 -72.5 -165.5t-121 -114t-145.5 -64.5t-146 -20q-61 0 -119 19t-102 57t-70.5 92.5t-26.5 121.5zM344 226.5q12 -42.5 41 -68t69 -37.5t81 -12q43 0 88 13t85 42t70.5 72t42.5 102 q12 66 -13.5 117t-62.5 90q-43 43 -100 80l-41 -23q-37 -18 -77 -41.5t-76.5 -55.5t-65.5 -75t-41 -102t0 -101.5zM537 1028q-12 -55 8 -103t49 -83q35 -41 80 -76q8 4 43 24.5t77 54.5t79.5 80t50.5 103q4 16 6 31.5t2 30.5q0 41 -14.5 70.5t-36 48t-50 27.5t-55.5 9 q-35 0 -70.5 -11t-69.5 -38t-60.5 -68t-38.5 -100z" />
<glyph unicode="9" d="M201 109l108 120q20 -33 51 -57q25 -23 62 -40t84 -17t99 22.5t100.5 75.5t90.5 143t70 224l2 10q-41 -29 -114.5 -59.5t-167.5 -30.5q-123 0 -203 75.5t-80 219.5q0 51 12 110q20 98 62.5 184.5t105 151t145.5 102t187 37.5q150 0 213.5 -97t63.5 -261q0 -129 -35 -293 q-33 -152 -79 -286t-112.5 -235.5t-155.5 -160.5t-208 -59q-86 0 -143.5 18.5t-92.5 40.5q-41 27 -65 62zM465 809q0 -37 8 -69.5t27.5 -57.5t52.5 -40t82 -15q41 0 81 13t74.5 33.5t64.5 43t50 39.5h-2q16 80 26.5 151.5t10.5 130.5q0 98 -36 155.5t-128 57.5 q-63 0 -112.5 -26.5t-85 -69.5t-60 -99.5t-37.5 -115.5q-6 -31 -11 -64.5t-5 -66.5z" />
<glyph unicode=":" horiz-adv-x="813" d="M203 0l63 301h203l-63 -301h-203zM324 578l65 301h203l-66 -301h-202z" />
<glyph unicode=";" horiz-adv-x="811" d="M129 -27q33 16 61 47q25 27 49.5 71t41.5 112l20 98h203q-2 -16 -4 -30.5t-4 -28.5q-23 -98 -74 -166t-107 -113q-66 -53 -139 -88zM358 578l66 301h203l-66 -301h-203z" />
<glyph unicode="&#x3c;" d="M96 731l781 739l53 -71l-711 -668l711 -668l-56 -69z" />
<glyph unicode="=" horiz-adv-x="1148" d="M27 551v90h1099v-90h-1099zM27 823v90h1099v-90h-1099z" />
<glyph unicode="&#x3e;" d="M96 63l713 668q-178 166 -356.5 334t-356.5 334l58 71l776 -739l-776 -737z" />
<glyph unicode="?" d="M342 995q39 106 107 191q29 35 65.5 69.5t82.5 61t101.5 43t122.5 16.5q51 0 104.5 -14t96.5 -45t70.5 -80t27.5 -121q0 -20 -3 -40.5t-7 -43.5q-12 -53 -36.5 -99t-56.5 -85t-67 -71t-65 -54q-59 -43 -94 -71.5t-56.5 -57.5t-34 -63.5t-24.5 -88.5h-158q10 47 19.5 85 t28 73t49 70t83.5 75l43 33q82 59 136.5 113.5t70.5 136.5q6 31 6 59q0 63 -35.5 111.5t-119.5 48.5q-53 0 -101.5 -22.5t-89.5 -62.5t-72.5 -92t-52.5 -112l-135 37h-6zM401 0l64 301h205l-64 -301h-205z" />
<glyph unicode="@" horiz-adv-x="1490" d="M233 408q0 88 20.5 179t61.5 189q68 164 158 278.5t189.5 185.5t200 102.5t190.5 31.5q137 0 228 -58.5t138 -152.5t51.5 -211.5t-34.5 -236.5q-35 -94 -82 -164t-100.5 -116t-107.5 -68.5t-102 -22.5q-41 0 -70.5 11.5t-47.5 25.5q-23 16 -35 39q-10 -8 -29.5 -20.5 t-46.5 -25t-58.5 -21.5t-66.5 -9q-88 0 -123 40t-35 97q0 16 2.5 30.5t6.5 31.5q8 35 21 70.5t30 64.5q61 113 127.5 173t139.5 87t153 30t168 3q-31 -90 -60 -168q-25 -66 -49 -131.5t-35 -93.5q-16 -55 -1.5 -80t40.5 -25q14 0 39 7t54.5 32t62.5 73t63 132q25 74 27 167 t-27.5 176t-94 139t-173.5 56q-102 0 -190 -47t-162 -119.5t-130.5 -161.5t-90.5 -171q-51 -121 -69.5 -238t8 -208t101 -146t209.5 -55q92 0 178.5 25.5t153.5 55.5q80 37 152 82l22 -133q-80 -45 -168 -80q-78 -31 -175 -55t-201 -24q-78 0 -155 24.5t-138.5 75.5 t-99.5 132t-38 196zM674 537q-8 -39 12.5 -60.5t40.5 -21.5q43 0 81 35.5t72.5 94t65.5 130t60 145.5q-47 -6 -85 -16t-71 -29.5t-62.5 -50.5t-56.5 -78q-10 -18 -19.5 -39.5t-17.5 -42t-13 -39t-7 -28.5z" />
<glyph unicode="A" d="M80 12l627 1346h180l59 -1346l-160 -41l-10 445h-356q-49 -109 -100.5 -222.5t-98.5 -222.5zM473 537h299l-14 637z" />
<glyph unicode="B" d="M143 0l25 123h111l237 1112h-110l24 123h365q141 0 223 -68.5t82 -191.5q0 -43 -8 -82q-16 -74 -48 -123t-65 -80t-59.5 -44t-32.5 -15q6 -2 30.5 -15.5t51 -42t47 -75t20.5 -115.5q0 -23 -2 -46.5t-8 -51.5q-23 -109 -70 -186t-106 -126t-127 -72.5t-133 -23.5h-447z M430 123h178q84 0 155 64.5t99 203.5q12 57 12 109q0 178 -174 178h-151zM575 801h127q25 0 59 8t66.5 30.5t60 62.5t42.5 106q8 39 8 77q0 82 -44 114t-101 34q-29 0 -51.5 1t-39.5 1h-34z" />
<glyph unicode="C" d="M231 377q0 72 9.5 155.5t31.5 184.5q27 127 74 245.5t116.5 211t160 147.5t202.5 55q94 0 150.5 -36.5t89.5 -79.5q37 -51 53 -115l-139 -70q-12 49 -35 86q-20 33 -55 59.5t-90 26.5q-113 0 -211.5 -128t-151.5 -378q-23 -104 -36 -199.5t-13 -174.5q0 -115 37 -185.5 t133 -70.5q53 0 103.5 28.5t89.5 63.5q45 41 86 94l108 -88q-49 -63 -115 -115q-55 -43 -130.5 -77.5t-168.5 -34.5q-68 0 -122 21.5t-94 69.5t-61.5 122.5t-21.5 181.5z" />
<glyph unicode="D" d="M137 0l25 123h110l238 1112h-111l25 123h367q186 0 264 -85t78 -259q0 -139 -43 -336q-43 -207 -100.5 -339t-129.5 -207t-163 -103.5t-201 -28.5h-359zM426 123h102q78 0 137.5 24.5t106.5 88t85 171t73 271.5q23 104 33 184t10 142q0 131 -43 181t-115 50h-151z" />
<glyph unicode="E" d="M211 0l287 1358h669l-24 -123h-518l-99 -457h435l-25 -123h-434l-115 -532h518l-24 -123h-670z" />
<glyph unicode="F" d="M250 0l287 1358h669l-24 -123h-518l-99 -457h434l-24 -123h-434l-140 -655h-151z" />
<glyph unicode="G" d="M242 387q0 133 34 289q27 131 75 257t116 224t158 158.5t204 60.5q86 0 141.5 -35.5t88.5 -78.5q37 -51 59 -113l-131 -78q-14 49 -39 88q-23 33 -59.5 60.5t-93.5 27.5q-117 0 -210 -154.5t-153 -428.5q-37 -176 -37 -289q0 -141 48.5 -202.5t134.5 -61.5q41 0 74.5 9 t57 21.5t36.5 21.5l12 9l88 410h-254l26 123h408l-129 -603q-45 -35 -100 -61q-47 -23 -111.5 -41t-136.5 -18q-84 0 -142.5 30.5t-95.5 86t-53 129t-16 159.5z" />
<glyph unicode="H" d="M156 0l286 1358h152l-123 -578h408l122 578h152l-287 -1358h-151l139 659h-408l-139 -659h-151z" />
<glyph unicode="I" d="M254 0l25 123h182l237 1112h-182l25 123h520l-25 -123h-184l-238 -1112h185l-25 -123h-520z" />
<glyph unicode="J" d="M182 268q0 49 8 88l31 136h152l-31 -136q-10 -47 -10 -84q0 -72 35.5 -116.5t117.5 -44.5q51 0 92 23.5t71 60t49.5 84t29.5 96.5l209 983h154l-209 -983q-25 -115 -77 -190.5t-115.5 -121t-128 -63.5t-111.5 -18q-72 0 -123.5 24.5t-83 64.5t-46 92t-14.5 105z" />
<glyph unicode="K" d="M217 0l287 1358h151l-118 -565h28l502 596l104 -74l-491 -574l295 -698l-141 -74l-285 699h-39l-141 -668h-152z" />
<glyph unicode="L" d="M233 0l287 1358h154l-262 -1235h555l-25 -123h-709z" />
<glyph unicode="M" d="M102 0l328 1358h184l68 -567l307 567h187l-246 -1358h-160l215 1122q-94 -172 -191.5 -350t-189.5 -346l-82 684l-262 -1110h-158z" />
<glyph unicode="N" d="M152 0l286 1358h189l151 -1114q59 287 115.5 557t116.5 557h153l-286 -1358h-189l-147 1122q-59 -283 -117.5 -561t-118.5 -561h-153z" />
<glyph unicode="O" d="M225 338q0 133 43 342q31 143 76 270t109.5 221.5t150.5 149.5t197 55q78 0 131 -25.5t87 -72.5t48 -112.5t14 -145.5q0 -76 -11.5 -162t-31.5 -178q-45 -209 -103 -344t-127 -214t-145.5 -109.5t-156.5 -30.5q-59 0 -110.5 16t-89.5 57t-59.5 109.5t-21.5 173.5z M381 328q0 -68 11 -111t31.5 -66.5t48.5 -32.5t60 -9q47 0 93.5 19t89.5 79.5t85 173.5t81 299q25 115 38 204t13 156q0 109 -37 159t-121 50q-66 0 -117 -39t-93 -112.5t-74.5 -179t-61.5 -238.5q-25 -117 -36 -203t-11 -149z" />
<glyph unicode="P" d="M221 0l287 1358h303q68 0 125 -14.5t100 -47t67.5 -83t24.5 -119.5q0 -23 -2 -47.5t-8 -53.5q-23 -98 -65.5 -173t-99 -124t-123 -74.5t-136.5 -25.5h-194l-125 -596h-154zM526 719h195q51 0 90 23.5t68.5 61.5t48 87t30.5 102q10 51 11 86q0 72 -40 114t-145 42h-147z " />
<glyph unicode="Q" d="M231 336q0 135 43 344q31 143 76 270t109.5 221.5t149.5 149.5t196 55q78 0 131 -25.5t87 -72.5t48 -112.5t14 -145.5q0 -76 -11.5 -162t-31.5 -178q-41 -190 -92 -317t-110 -207h-2l67 -109l-131 -92l-53 86q-49 -33 -102.5 -46t-108.5 -13q-59 0 -110.5 16t-88.5 57 t-58.5 109.5t-21.5 171.5zM385 328q0 -68 11.5 -111t32 -66.5t48 -32.5t60.5 -9q61 0 118 36l-135 215l133 95l107 -172q33 66 64.5 163t60.5 234q25 115 38 204t13 156q0 109 -37 159t-121 50q-66 0 -117 -39t-93 -112.5t-74.5 -179t-61.5 -238.5q-25 -117 -36 -203 t-11 -149z" />
<glyph unicode="R" d="M219 0l287 1358h303q68 0 125 -14.5t100 -47t67.5 -83t24.5 -119.5q0 -23 -2 -47.5t-8 -53.5q-35 -158 -120 -253t-195 -128h6l154 -577l-152 -66l-170 627h-141l-125 -596h-154zM524 719h195q51 0 91 23.5t68.5 61.5t48 87t31.5 102q4 23 7.5 43.5t3.5 40.5 q0 72 -41 115t-146 43h-147z" />
<glyph unicode="S" d="M227 274q0 18 1 39t3 43l160 21l-2 -29q-1 -22 -1 -43t1 -42q2 -42 16.5 -75.5t45 -55t90.5 -21.5q96 0 157.5 63.5t85.5 177.5q6 25 8.5 47.5t2.5 40.5q0 41 -11.5 71t-30 51.5t-42 37.5t-47.5 33l-41 26l-29 19q-33 20 -66.5 46t-61.5 58.5t-45.5 75.5t-17.5 98 q0 39 9 74q18 82 57 146.5t93 109.5t117.5 67.5t129.5 22.5q53 0 92 -13t67.5 -34.5t47 -49.5t31.5 -56q24 -61 24 -137v-17l-153 -22q0 55 -13 100q-12 37 -39.5 68.5t-83.5 31.5q-88 0 -143 -65.5t-74 -151.5q-6 -26 -6 -49q0 -17 3 -29q7 -32 26.5 -62t53.5 -57.5 t79 -62.5l31 -22q39 -29 73.5 -56.5t62 -62.5t44 -79t16.5 -104q0 -49 -12 -106q-20 -96 -65.5 -165t-103.5 -112t-126 -62t-131 -19q-59 0 -110.5 12t-89.5 45t-60.5 89t-22.5 146z" />
<glyph unicode="T" d="M410 1235l24 123h733l-24 -123h-289l-262 -1235h-152l262 1235h-292z" />
<glyph unicode="U" d="M231 238q0 35 11 86l219 1034h153l-213 -1002q-12 -53 -12 -100q0 -63 31 -104t117 -41q59 0 101 22.5t70.5 57t45 78.5t24.5 87l213 1002h152l-217 -1028q-16 -78 -55.5 -142.5t-94.5 -110.5t-123.5 -70.5t-142.5 -24.5q-127 0 -203 67.5t-76 188.5z" />
<glyph unicode="V" d="M369 1354l161 32l56 -1015l489 1015l150 -32l-684 -1383h-76z" />
<glyph unicode="W" d="M213 -27l158 1383l157 30l-147 -999l321 692h84l27 -688q68 248 138.5 498t135.5 497l146 -30l-428 -1383h-92l-31 815l-379 -815h-90z" />
<glyph unicode="X" d="M88 31l500 712q-41 141 -82 287t-82 287l154 69l127 -479q80 123 162.5 240t162.5 239l127 -69l-407 -574q47 -178 98 -356t98 -356l-149 -64l-164 611l-422 -611z" />
<glyph unicode="Y" d="M362 1331l154 58l139 -691q106 172 217 345.5t218 345.5l127 -58l-521 -794l-112 -537h-154l113 537z" />
<glyph unicode="Z" d="M102 0l838 1235h-520l24 123h742l-836 -1235h596l-24 -123h-820z" />
<glyph unicode="[" horiz-adv-x="712" d="M27 -78l309 1454h553l-25 -123h-401l-258 -1208h401l-26 -123h-553z" />
<glyph unicode="\" d="M154 1520h112l602 -1575h-112z" />
<glyph unicode="]" horiz-adv-x="716" d="M29 -78l26 123h402l258 1208h-402l25 123h555l-309 -1454h-555z" />
<glyph unicode="^" d="M119 725l334 657h120l328 -657h-115l-272 555l-281 -555h-114z" />
<glyph unicode="_" horiz-adv-x="1255" d="M14 -141h1229v-80h-1229v80z" />
<glyph unicode="`" horiz-adv-x="647" d="M150 1292l102 131l332 -215l-76 -94z" />
<glyph unicode="a" horiz-adv-x="933" d="M129 211q0 23 2 42t6 36q8 37 32 82t67 88t105 76.5t148 48.5q33 6 75 11t81 10t67.5 8t35.5 3q2 0 6 25t8 47q14 63 14 115q0 51 -14 79.5t-37 43t-50.5 17.5t-56.5 3q-35 0 -84 -16.5t-94 -34.5q-53 -23 -106 -49q-6 31 -10 55q-4 23 -7.5 40t-1.5 17l33 18 q33 17 83 37.5t111.5 38t123.5 17.5q51 0 96 -11t78.5 -39t54 -72t20.5 -109q0 -57 -14 -117q-20 -100 -35.5 -173t-28 -128t-20.5 -94t-16 -72q-14 -63 -20.5 -109.5t-10.5 -78.5q-3 -25 -3 -46q0 -11 1 -20h-129q0 18 2 43q2 23 6 53.5t15 75.5q0 2 -22 -28.5t-63.5 -68.5 t-103 -70t-139.5 -32q-61 0 -100 22.5t-63 57.5t-33 77t-9 81zM266 217q0 -55 31 -83t84 -28q33 0 76 15.5t85 41t78.5 62.5t61.5 80q0 2 6 33t13.5 65.5t14.5 64.5t7 28t-24.5 -4.5t-60.5 -5.5t-74 -6t-64 -9q-25 -6 -59.5 -19.5t-67.5 -36t-59.5 -57t-39.5 -79.5 q-8 -31 -8 -62z" />
<glyph unicode="b" horiz-adv-x="987" d="M164 0l299 1411h129l-107 -504q18 23 45 50.5t64 52t82 41t100 16.5q123 0 184.5 -94t61.5 -248q0 -98 -25 -209q-25 -119 -68.5 -216t-101 -167t-127 -108.5t-147.5 -38.5q-57 0 -98 17t-68 42t-42 52.5t-21 49.5l-31 -147h-129zM358 317q8 -27 23.5 -64.5t39 -72.5 t57.5 -59.5t77 -24.5q57 0 107.5 40t90.5 103.5t68.5 140.5t44.5 150q18 88 19 177q0 98 -32 167.5t-108 69.5q-57 0 -104 -23.5t-85 -56.5t-65.5 -68.5t-41.5 -60.5z" />
<glyph unicode="c" horiz-adv-x="878" d="M193 356q0 82 20 179q37 170 107.5 274t153.5 160.5t165 75t141 18.5q49 0 86 -9.5t61.5 -20.5t36.5 -19q11 -7 11 -6q1 8 -11 -18q-10 -20 -22 -46q-14 -29 -31 -67q-16 18 -39 32q-20 12 -47.5 22.5t-64.5 10.5q-43 0 -101.5 -16.5t-117 -62.5t-110.5 -128t-79 -211 q-18 -86 -18 -151q0 -84 22.5 -137.5t57.5 -86t73.5 -45t73.5 -12.5q41 0 78 10.5t66 22.5q35 14 63 35l8 -125q-37 -18 -78 -33q-35 -12 -79 -21.5t-87 -9.5q-47 0 -106 17.5t-111.5 60.5t-87 118t-34.5 189z" />
<glyph unicode="d" horiz-adv-x="1011" d="M193 346q0 96 24 217q29 131 78 227.5t109.5 158t127 91t127.5 29.5t104.5 -25.5t72.5 -56.5q33 -37 53 -82l108 506h129l-299 -1411h-129l37 166q-33 -53 -76 -92q-37 -35 -92 -62.5t-129 -27.5q-115 0 -180 96t-65 266zM326 356q0 -109 34.5 -182.5t112.5 -73.5 q53 0 106.5 32t94.5 73q49 47 92 106l45 221q8 41 17.5 81t15.5 71q8 37 14 70l-8 30q-8 29 -29.5 65t-57.5 65.5t-91 29.5t-107.5 -36t-95.5 -94t-76 -133t-49 -153q-18 -86 -18 -172z" />
<glyph unicode="e" horiz-adv-x="958" d="M174 373q0 84 21 180q33 160 94 260t130.5 156.5t141.5 77t127 20.5t106.5 -15.5t90.5 -50t61.5 -94t22.5 -145.5q0 -100 -37 -248h-16q-17 0 -47.5 1t-72.5 1h-89q-96 0 -202 -1t-186 -1q-6 -33 -10 -62.5t-4 -58.5q0 -63 15.5 -117.5t45 -94.5t71.5 -62.5t95 -22.5 q66 0 113 9.5t80 21.5q37 12 66 31l14 -119q-33 -18 -76 -31q-37 -10 -90 -19t-123 -9q-59 0 -119.5 20t-109.5 67.5t-81 122t-32 183.5zM350 633h230h84t72.5 1t41.5 1h31q4 14 8 35q4 16 6 38.5t2 47.5q0 33 -6 67.5t-23.5 62t-48 45t-79.5 17.5q-41 0 -77 -13 t-66.5 -35.5t-55.5 -51.5t-43 -57q-45 -70 -76 -158z" />
<glyph unicode="f" horiz-adv-x="716" d="M231 930l27 125h221q18 82 39 153.5t55.5 122.5t88.5 80q50 27 123 27h10q35 -2 72.5 -8.5t66.5 -14.5q35 -8 65 -20l-53 -111q-25 10 -51 19q-23 8 -51.5 14t-57.5 6q-43 0 -71.5 -18.5t-49 -53t-34 -85t-25.5 -111.5h291l-27 -125h-290l-197 -930h-127l197 930h-222z " />
<glyph unicode="g" horiz-adv-x="993" d="M87 -209q-1 16 -1 30q0 27 4 48q10 53 42 91t67 60q39 27 84 43q-31 10 -54 33q-18 18 -31 51q-8 18 -8 41q0 19 5 41q10 49 40.5 85t65.5 61q39 27 86 47q-33 18 -55 49q-23 27 -39.5 70t-16.5 104q0 35 11 86q18 86 60 149.5t96.5 104.5t112.5 61.5t110 20.5 q41 0 72.5 -8t54.5 -19q25 -10 43 -24q8 0 45 2t78.5 4t79.5 4t53 4l-25 -121l-164 -2q2 -8 6 -16q2 -8 4 -21.5t2 -31.5q0 -20 -2 -46t-10 -61q-10 -51 -41 -110.5t-79 -110.5t-112.5 -86t-144.5 -35q-2 0 -9 1t-17 1t-27 2q-35 -10 -65 -28q-27 -16 -50.5 -39t-29.5 -56 q-8 -33 2 -50t30.5 -24.5t45 -7.5h45.5q41 0 98 2.5t164 6.5h13q78 0 119 -45q44 -50 44 -129q0 -33 -6 -66q-12 -53 -49 -117.5t-101.5 -120t-157 -93.5t-215.5 -38q-102 0 -159.5 33t-84 78t-29.5 92zM213 -141q-4 -20 -4 -36q0 -24 8 -42q14 -31 41 -49.5t62.5 -25.5 t68.5 -7q78 0 139.5 20.5t106.5 54t71.5 79t36.5 94.5q7 35 7 58q0 33 -13 45q-22 22 -75 24h-74q-49 0 -101.5 -2.5t-93.5 -8.5q-10 -6 -35.5 -21t-54.5 -40t-54.5 -60.5t-35.5 -82.5zM403 657q0 -84 44.5 -127t103.5 -43q31 0 64.5 15.5t64.5 45.5t56.5 75t37.5 104 q8 35 8 74q0 80 -39 117.5t-98 37.5q-29 0 -64.5 -15t-69.5 -46t-61.5 -75t-39.5 -99q-6 -35 -7 -64z" />
<glyph unicode="h" horiz-adv-x="1013" d="M172 0l299 1409h129l-111 -522q43 53 95 92q43 35 100 63q53 26 114 25h9q102 -4 150.5 -63.5t48.5 -163.5q0 -63 -15 -127q-8 -39 -19 -90.5t-23.5 -108.5t-25 -117.5t-24.5 -117.5q-29 -133 -59 -279h-129q33 150 59 283q12 57 23.5 115.5t22.5 112.5t20.5 99t15.5 74 q10 43 15 81t5 69q0 53 -20.5 83.5t-69.5 32.5h-8q-61 0 -116 -28q-58 -30 -103 -68q-53 -43 -96 -100l-158 -754h-129z" />
<glyph unicode="i" horiz-adv-x="559" d="M227 0l195 940h-184l24 117h316l-224 -1057h-127zM479 1337q10 41 46 71t77 30q40 0 64 -30q16 -21 17 -48q0 -11 -3 -23q-8 -41 -44 -70.5t-77 -29.5q-41 -1 -65 29q-18 22 -17 51q0 10 2 20z" />
<glyph unicode="j" horiz-adv-x="518" d="M-205 -362l47 116q41 -14 78 -22q33 -8 66.5 -14.5t56.5 -6.5q33 0 57.5 8.5t46 37t39.5 87t41 156.5q10 49 24.5 115.5t30 142.5t32 156t32.5 155q37 178 76 371h-184l24 117h316q-49 -231 -93 -434q-18 -88 -37.5 -178.5t-37 -173.5t-31.5 -153.5t-25 -117.5 q-20 -96 -41.5 -172t-55.5 -129t-86 -82t-138 -29q-35 0 -77 7.5t-77 17.5q-43 10 -84 25zM479 1337q10 41 46 71t77 30t64 -30q17 -21 17 -48q0 -11 -3 -23q-8 -41 -44 -70.5t-77 -29.5t-65 29q-17 23 -17 51q0 10 2 20z" />
<glyph unicode="k" horiz-adv-x="944" d="M180 0l152 705q29 133 54.5 259t47.5 226q25 117 47 221h129l-176 -821l500 467h178l-491 -453l311 -604h-162l-254 530l-104 -92l-101 -438h-131z" />
<glyph unicode="l" horiz-adv-x="546" d="M223 152q0 39 8 73q6 31 20.5 97.5t33 155.5t41 192.5l45 207t43 200t37 170t25.5 118.5l9 45h129q-66 -307 -118 -555q-23 -106 -45.5 -210.5t-41 -191.5t-31.5 -147.5t-18 -79.5q-5 -26 -5 -46q-1 -25 7 -43q14 -32 54 -32q29 0 59 15q6 -25 10 -43.5t9 -32.5 q4 -16 8 -27q-18 -10 -41 -18q-18 -8 -45 -13t-58 -5q-53 0 -94 43t-41 127z" />
<glyph unicode="m" horiz-adv-x="1570" d="M186 0l224 1057h129l-35 -170q41 53 94 92q44 35 102 63q55 26 114 25h9q90 -4 141.5 -51t55.5 -131q14 14 48 43.5t81 60.5t104.5 54.5t118.5 23.5q51 0 87 -16.5t57.5 -44t30.5 -64.5t9 -80q0 -31 -4 -62.5t-10 -64.5q-6 -31 -16 -79t-22.5 -105t-26 -120.5 t-25.5 -125.5q-31 -143 -66 -305h-126q35 162 63 303q12 59 24.5 119.5t23.5 113t20.5 93.5t13.5 61q18 88 18 141q0 43 -9 68t-22.5 37t-28.5 15t-30 3q-53 0 -104 -22.5t-93 -53t-74 -60.5t-44 -44q-4 -16 -6 -30.5t-6 -30.5q-8 -39 -19.5 -90.5t-24 -108.5t-24.5 -117.5 t-25 -117.5q-29 -133 -59 -279h-129q33 150 59 283q12 57 23.5 115.5t23 112.5t20.5 99t15 74q10 43 15.5 81t5.5 69q0 53 -20.5 83.5t-69.5 32.5h-8q-63 0 -117 -28q-58 -30 -103 -68q-53 -43 -96 -100l-158 -754h-129z" />
<glyph unicode="n" horiz-adv-x="1058" d="M184 0l224 1057h129l-35 -170q45 53 98 92q46 35 104 63q55 26 114 25h9q100 -4 146.5 -61.5t46.5 -157.5q0 -57 -16 -135q-8 -39 -19.5 -90.5t-24 -108.5t-24.5 -117.5t-25 -117.5q-29 -133 -59 -279h-129q33 150 59 283q12 57 23.5 115.5t23 112.5t20.5 99t15 74 q10 43 15.5 81t5.5 69q0 53 -20.5 83.5t-69.5 32.5h-8q-63 0 -117 -28q-58 -30 -103 -68q-53 -43 -96 -100l-158 -754h-129z" />
<glyph unicode="o" horiz-adv-x="983" d="M190 340q0 45 5.5 94t17.5 105q29 139 83 239.5t122.5 165t146.5 95t158 30.5q137 0 215 -96t78 -271q0 -84 -23 -192q-29 -129 -82 -230.5t-122.5 -170t-148.5 -104.5t-159 -36q-129 0 -210 94.5t-81 276.5zM330 348q0 -78 18.5 -129t46 -82t57 -43t52.5 -12 q37 0 88 22.5t103.5 74.5t97.5 136t69 205q10 51 15.5 95t5.5 81q0 70 -15.5 118t-41 78t-58.5 43t-66 13q-51 0 -103 -20.5t-98 -69.5t-86 -133t-67 -213q-10 -47 -14 -88t-4 -76z" />
<glyph unicode="p" horiz-adv-x="1011" d="M96 -412l312 1467h127l-35 -168q29 49 71 88q37 35 92.5 62.5t133.5 27.5q119 0 185.5 -89t66.5 -251q0 -94 -25 -207q-29 -127 -78 -227.5t-110.5 -170t-128 -106.5t-129.5 -37t-106.5 29t-72.5 64q-33 39 -53 92l-121 -574h-129zM377 317q12 -59 37 -106q20 -41 56 -73 t93 -32t108.5 39t94.5 100.5t73.5 136.5t47.5 146q8 41 13 81t5 79q0 51 -9 97t-27.5 82t-49.5 56.5t-74 20.5q-59 0 -109 -30.5t-87 -67.5t-47 -52l-31 -44q-6 -31 -14 -68q-6 -31 -14.5 -69t-18.5 -78q-23 -96 -47 -218z" />
<glyph unicode="q" horiz-adv-x="1011" d="M190 344q0 90 23 203q27 121 73 217t107.5 163.5t133 103.5t149.5 36q63 0 104 -24.5t66 -53.5q29 -35 43 -78l31 146h129l-312 -1469h-129l123 584q-29 -53 -72 -94q-37 -35 -92 -64.5t-131 -29.5q-119 0 -182.5 99t-63.5 261zM332 348q0 -109 33.5 -174t99.5 -65 q61 0 114.5 31.5t94.5 70.5q47 45 88 102q25 119 47 217q8 41 16.5 82t15.5 73t12 54.5t5 26.5q-14 49 -39 88q-23 33 -59.5 60.5t-93.5 27.5q-51 0 -99.5 -30.5t-90.5 -86t-73.5 -131.5t-50.5 -164q-20 -94 -20 -182z" />
<glyph unicode="r" horiz-adv-x="802" d="M182 0l224 1057h129l-50 -236q37 68 84 121q41 47 97.5 85t126.5 38q35 0 68.5 -8t62.5 -19q33 -12 61 -26q-6 -12 -14 -23l-13.5 -22.5t-15.5 -26.5l-41 -74q-18 16 -41 29q-18 10 -42.5 19.5t-51.5 9.5q-63 0 -119.5 -38t-99.5 -83q-51 -53 -92 -121l-144 -682h-129z " />
<glyph unicode="s" horiz-adv-x="864" d="M123 33l53 112q33 -14 70 -24q33 -10 76 -16.5t92 -6.5q121 0 185.5 54.5t78.5 126.5q3 16 3 31q1 41 -23 78q-32 50 -132 89q-43 16 -88 38t-83 53.5t-61.5 76.5t-23.5 107q0 39 9 73q16 78 59 126t98.5 74t115.5 35t114 9q53 0 99 -7t81 -16.5t44 -13.5l30 -10 q-2 0 -9.5 -17.5t-17.5 -39.5q-10 -25 -27 -58q-31 12 -67 21q-31 8 -69 15t-73 7q-98 0 -166.5 -34.5t-80.5 -122.5q-2 -14 -2 -26q0 -23 7 -41q11 -28 40.5 -50.5t76 -44t111.5 -47.5q104 -41 140 -107.5t36 -132.5q0 -47 -8 -80q-10 -53 -36.5 -104t-73 -91t-116 -66 t-163.5 -26q-63 0 -116.5 8.5t-94.5 18.5q-47 12 -88 29z" />
<glyph unicode="t" horiz-adv-x="757" d="M246 922l28 135h166l58 270h127l-58 -270h293l-29 -135h-292q-31 -137 -56 -256q-10 -51 -21 -102.5t-20.5 -97.5t-17.5 -83t-12 -57q-6 -31 -11.5 -62t-5.5 -57q0 -47 20.5 -76t78.5 -29q45 0 87 9.5t72 19.5q37 12 68 31l10 -111q-43 -20 -90 -35q-41 -14 -93 -24 t-106 -10q-84 0 -129 50t-45 156q0 66 19 152q20 94 41.5 196.5t40.5 188.5q23 100 43 197h-166z" />
<glyph unicode="u" horiz-adv-x="1028" d="M209 205q0 57 16 135q8 39 18.5 90t23 109.5t25.5 119t25 117.5q29 135 62 281h129q-31 -154 -59 -287q-12 -57 -24.5 -116.5t-24 -113t-20.5 -98.5t-15 -73q-18 -86 -19 -150q0 -53 19.5 -84t68.5 -33h8q62 0 116 29q58 31 104 70q53 45 98 102l158 754h63q25 0 45.5 -1 t20.5 1q-16 -80 -35 -166q-16 -74 -37 -169t-41 -194l-111 -528h-129l35 170q-45 -53 -98 -94q-45 -36 -105 -64q-56 -27 -116 -26h-9q-100 4 -146 61t-46 158z" />
<glyph unicode="v" horiz-adv-x="827" d="M225 1057h142l69 -844l428 844h142l-551 -1057h-125z" />
<glyph unicode="w" horiz-adv-x="1316" d="M260 1057h133l-2 -860l369 651h133l78 -649l383 858h137l-494 -1057h-120l-86 672l-392 -672h-118z" />
<glyph unicode="x" horiz-adv-x="890" d="M68 0l417 522l-202 535h147l152 -424l319 424h152l-424 -537l192 -520h-145l-141 401l-320 -401h-147z" />
<glyph unicode="y" horiz-adv-x="864" d="M-59 -371l57 117q16 -8 37 -16q16 -6 36.5 -11.5t43.5 -3.5q25 2 50 17.5t55 50.5t66 92t81 143l-5 44q-6 44 -13 117t-16 166t-18 192q-23 229 -51 520h142q4 -63 10 -131q4 -59 10 -135t12 -154q14 -184 31 -418l434 838h141q-162 -309 -294 -561 q-57 -109 -113.5 -214.5t-103 -192.5t-80 -148.5t-43.5 -79.5q-18 -31 -46 -76t-65 -88t-84 -74t-102 -31q-35 0 -67 5.5t-54 13.5q-27 8 -51 18z" />
<glyph unicode="z" horiz-adv-x="831" d="M57 0l23 109l680 833h-492l25 115h653l-20 -103l-686 -837h508l-25 -117h-666z" />
<glyph unicode="{" horiz-adv-x="716" d="M31 618q6 0 39.5 6.5t74.5 27t78 57t49 98.5l68 311q18 86 57 137.5t99.5 78t143.5 34.5t187 8l-10 -51q-78 0 -133 -6t-92 -26.5t-60.5 -61.5t-37.5 -111l-66 -305q-12 -55 -33.5 -92t-44 -59.5t-40 -32.5t-21.5 -13q4 -2 15 -9t22.5 -21.5t19.5 -38t8 -55.5 q0 -31 -8 -62l-65 -311q-4 -23 -7.5 -42.5t-3.5 -35.5q0 -49 18.5 -74.5t51.5 -38t78 -14.5t100 -2l-12 -51q-88 0 -160 5t-122 23.5t-76.5 55.5t-26.5 102q0 43 12 98l64 299q12 57 -10.5 91t-54.5 51.5t-63.5 23.5t-37.5 6z" />
<glyph unicode="|" horiz-adv-x="528" d="M219 -592v2210h107v-2210h-107z" />
<glyph unicode="}" horiz-adv-x="716" d="M6 -137l12 51q63 0 115.5 3t93.5 22.5t70 61.5t45 120l66 311q12 51 32.5 86t42 56.5t39 31.5t21.5 12q-4 2 -14.5 9.5t-20.5 23t-18.5 39t-8.5 58.5t8 67l66 305q4 25 7 46.5t3 37.5q0 41 -14 64.5t-45 36t-78 16.5t-111 4l11 51h8q90 0 160.5 -6t120 -24.5t75 -53.5 t25.5 -94q0 -29 -10 -80l-68 -311q-12 -61 7.5 -98t51 -56.5t63.5 -27t42 -7.5q-6 0 -40 -5t-74 -22.5t-75.5 -52t-48.5 -92.5l-26 -127q-10 -43 -20.5 -87t-18.5 -85q-23 -100 -64 -157.5t-102.5 -85t-143 -34.5t-184.5 -7z" />
<glyph unicode="~" horiz-adv-x="1153" d="M25 610q-2 0 20.5 39t62 85t96 85t124.5 39q78 0 148.5 -25.5t127.5 -54.5q55 -27 109.5 -48t113.5 -21t105.5 30.5t75.5 69.5q35 43 57 100l80 -55q-35 -66 -82 -119q-41 -45 -99.5 -81t-134.5 -36q-63 0 -128.5 25t-129.5 53q-59 29 -118.5 51.5t-112.5 22.5t-96 -32.5 t-74 -73.5q-37 -47 -64 -107z" />
<glyph unicode="&#xa1;" horiz-adv-x="702" d="M150 0l241 950h148l-166 -950h-223zM383 1057l63 301h203l-63 -301h-203z" />
<glyph unicode="&#xa2;" d="M246 496q0 47 5 97t17 107q25 119 73 210t107.5 154.5t127 102.5t131.5 54l34 163h154l-35 -161q72 -16 115 -54.5t67 -76.5q29 -47 43 -99l-151 -65q-4 33 -14 63q-10 27 -31 51.5t-58 40.5l-172 -811q43 16 81 45t67 58q33 35 61 71l111 -84q-39 -55 -92 -100 q-45 -41 -109.5 -76.5t-146.5 -48.5l-33 -155h-154l33 157q-111 23 -171 113t-60 244zM403 494q0 -78 23 -137.5t80 -82.5l172 809q-82 -35 -149.5 -132t-96.5 -236q-12 -59 -20.5 -114.5t-8.5 -106.5z" />
<glyph unicode="&#xa3;" d="M164 78q57 51 106 110q41 51 81 116t57 136q10 41 13 82t3 80q0 27 -1 51.5t-3 46.5h-219l24 113h183q-4 33 -6.5 69t-2.5 70q0 25 2 47.5t7 42.5q12 61 51 122t96 108t130 75.5t153 28.5q106 0 167.5 -36.5t96.5 -82.5q37 -53 53 -116l-149 -51q-2 45 -23 81 q-16 31 -54 56.5t-108 25.5q-68 0 -113.5 -22.5t-75.5 -55t-45.5 -71.5t-21.5 -70q-4 -23 -6 -51.5t-2 -58.5q0 -29 1 -55.5t3 -55.5h365l-25 -113h-332q4 -37 7.5 -73.5t3.5 -71.5q0 -55 -11 -106q-10 -47 -32.5 -91.5t-50 -83t-54 -69.5t-43.5 -47q23 10 61.5 19t90.5 9 q41 0 73.5 -13t61.5 -30q25 -14 46 -24t44 -10t49.5 14t50.5 31q29 20 58 45l55 -107q-31 -33 -68 -55q-33 -23 -74.5 -39t-95.5 -16q-53 0 -77.5 11t-47.5 25q-20 16 -47.5 28.5t-87.5 12.5q-47 0 -94 -12t-84 -29q-43 -18 -84 -41z" />
<glyph unicode="&#xa4;" horiz-adv-x="1224" />
<glyph unicode="&#xa5;" d="M258 543l25 114h254q-41 164 -85 337t-83 337l153 58l140 -691q104 166 213.5 341t214.5 341l135 -49l-457 -674h260l-24 -114h-302q-10 -51 -25 -123t-30.5 -148.5t-31 -148.5t-25.5 -123h-154l119 543h-297z" />
<glyph unicode="&#xa6;" horiz-adv-x="536" d="M223 141h105v-731h-105v731zM223 879v733h105v-733h-105z" />
<glyph unicode="&#xa7;" d="M219 258l164 55q4 -59 23 -104q16 -41 48.5 -73t92.5 -32q33 0 66.5 7.5t62.5 25t49 44t29 65.5q8 39 -3.5 72.5t-58.5 62.5q-25 14 -59.5 33.5t-72.5 42t-73.5 45t-62.5 41.5q-53 41 -65.5 88t-0.5 102q8 39 26.5 73t41.5 59.5t45.5 44t38.5 28.5h-2q-33 33 -49.5 76 t-3.5 102q12 59 50 106.5t88 81t109.5 52t118.5 18.5q92 0 145.5 -34.5t80.5 -75.5q31 -49 40 -111l-141 -55q-6 43 -24 78q-16 29 -46 53t-83 24q-63 0 -113.5 -37.5t-65.5 -103.5q-6 -31 0.5 -51.5t18.5 -34.5t27.5 -23.5t29.5 -17.5l217 -127q59 -33 81 -88t7 -123 q-8 -35 -27.5 -63.5t-42 -53t-46 -43t-39.5 -28.5q49 -41 68.5 -93.5t4.5 -123.5q-10 -43 -41.5 -88t-82 -84t-117 -63.5t-144.5 -24.5q-80 0 -135 21.5t-92 59t-56.5 88t-25.5 107.5zM516 737q-10 -53 13.5 -77.5t50.5 -38.5l168 -105q20 14 49.5 47t40.5 86 q8 37 -7.5 63.5t-47 50t-75.5 47.5t-94 54q-4 2 -9 4t-7 4q-23 -18 -47.5 -53t-34.5 -82z" />
<glyph unicode="&#xa8;" d="M186 1257q10 53 49 91t84 38q43 0 66.5 -38t13.5 -91t-50 -90t-83 -37q-45 0 -67.5 37t-12.5 90zM557 1257q10 53 49 91t84 38q43 0 66.5 -38t13.5 -91t-50 -90t-83 -37q-45 0 -67.5 37t-12.5 90z" />
<glyph unicode="&#xa9;" horiz-adv-x="1548" d="M246 516q0 78 18 164q31 143 105.5 270t178 221.5t226.5 148.5t250 54q109 0 198 -40t152.5 -110.5t98 -168t34.5 -211.5q0 -82 -18 -164q-31 -145 -105.5 -271t-178 -221.5t-226.5 -149.5t-250 -54q-109 0 -198 39.5t-152.5 111.5t-98 169t-34.5 212zM365 532 q0 -96 27.5 -179t78.5 -143t123 -94t158 -34q102 0 203.5 47t185.5 128t146.5 190.5t88.5 232.5q16 82 17 147q0 96 -28 178t-79 142.5t-122.5 94.5t-157.5 34q-102 0 -204 -47t-186 -128t-146 -189.5t-89 -231.5q-16 -82 -16 -148zM553 584q0 51 10 102q18 84 57 156.5 t94.5 127t125 85t147.5 30.5q96 0 145.5 -40.5t67.5 -90.5q23 -57 19 -131h-119q4 43 -6 80q-10 31 -38 56.5t-87 25.5q-61 0 -109.5 -25.5t-83.5 -67.5t-58.5 -95.5t-35.5 -108.5q-10 -51 -10 -94q0 -86 40 -149.5t130 -63.5q57 0 96 26.5t61 59.5q27 37 43 86h119 q-27 -78 -76 -137q-41 -51 -107.5 -93t-164.5 -42q-76 0 -126 27.5t-79.5 71.5t-42 97t-12.5 107z" />
<glyph unicode="&#xaa;" d="M293 479l24 113h639l-24 -113h-639zM362 731l359 627h160l92 -627l-154 -45l-24 184h-193l-102 -184zM664 983h118l-24 172z" />
<glyph unicode="&#xab;" horiz-adv-x="1302" d="M115 672l635 499l79 -106l-524 -393l357 -398l-125 -106zM569 672l635 499l80 -106l-524 -393l356 -398l-125 -106z" />
<glyph unicode="&#xac;" horiz-adv-x="1142" d="M23 823v90h1097v-532h-104v442h-993z" />
<glyph unicode="&#xad;" horiz-adv-x="841" d="M193 465l26 129h481l-26 -129h-481z" />
<glyph unicode="&#xae;" horiz-adv-x="1546" d="M252 516q0 78 18 164q31 143 106 270t178 221.5t226 148.5t250 54q109 0 198 -40t152.5 -110.5t98 -168t34.5 -211.5q0 -82 -18 -164q-31 -145 -105.5 -271t-178 -221.5t-226.5 -149.5t-250 -54q-109 0 -197.5 39.5t-152 111.5t-98.5 169t-35 212zM371 532 q0 -96 27.5 -179t77.5 -143t122 -94t160 -34q102 0 203.5 47t185.5 128t146.5 190.5t88.5 232.5q16 82 17 147q0 96 -28 178t-79 142.5t-122.5 94.5t-157.5 34q-104 0 -204.5 -47t-185.5 -128t-146.5 -189.5t-88.5 -231.5q-16 -82 -16 -148zM567 287l166 774h320 q37 0 75.5 -9.5t68.5 -33t43 -62t1 -100.5q-12 -59 -39.5 -99t-64.5 -64.5t-78 -36t-78 -11.5l131 -358h-135l-117 358h-98l-76 -358h-119zM784 745h177q55 0 101 23t62 92q6 35 -2 54.5t-25.5 29.5t-39 12t-39.5 2h-115q-37 0 -74 3z" />
<glyph unicode="&#xaf;" d="M178 1206l21 97h602l-21 -97h-602z" />
<glyph unicode="&#xb0;" d="M115 1118q0 82 31.5 153.5t85 125t126 84t156.5 30.5q82 0 155.5 -30.5t128 -84t86 -125t31.5 -153.5t-31.5 -153.5t-86 -126t-128 -85t-155.5 -30.5q-84 0 -156.5 30.5t-126 85t-85 126t-31.5 153.5zM215 1118q0 -66 23.5 -122t63.5 -98t95.5 -66.5t116.5 -24.5 t116.5 24.5t96.5 66.5t64.5 98.5t23.5 121.5q0 63 -23.5 119.5t-64.5 98.5t-96.5 66.5t-116.5 24.5t-116.5 -24.5t-95.5 -66.5t-63.5 -98.5t-23.5 -119.5z" />
<glyph unicode="&#xb1;" horiz-adv-x="1169" d="M29 80v90h1099v-90h-1099zM29 782v90h497v498h99v-498h503v-90h-503v-495h-99v495h-497z" />
<glyph unicode="&#xb2;" d="M422 676l16 82q80 76 148 139q59 53 113.5 104.5t76.5 69.5q39 33 61.5 60.5t26.5 68.5q4 27 -14.5 50.5t-54.5 23.5q-18 0 -39 -4t-39.5 -18.5t-34.5 -40t-31 -70.5l-131 14q20 61 60 111q35 41 90 75.5t143 34.5q111 0 157 -54t29 -132q-10 -53 -49 -97t-92 -92h2 q-2 -4 -3 -3t-3 -3q-41 -41 -85 -79.5t-81 -69.5q-43 -37 -84 -70h297l-20 -100h-459z" />
<glyph unicode="&#xb3;" d="M424 676l20 100q152 0 250.5 41t114.5 119q10 55 -19.5 79.5t-89.5 24.5q-51 0 -122 -14l16 78l237 178q-70 0 -144.5 1t-143.5 1l18 92h467l-16 -84l-232 -168q8 0 40 -5t65 -23.5t55.5 -53t9.5 -94.5q-14 -63 -56 -113.5t-101.5 -86t-132 -55t-148.5 -19.5h-63 q-14 0 -25 2z" />
<glyph unicode="&#xb4;" d="M260 1208l422 215l49 -131l-436 -178z" />
<glyph unicode="&#xb5;" d="M66 -430l315 1489h154l-148 -699q-4 -18 -6 -38.5t-2 -40.5q0 -33 7 -64t23.5 -55.5t45 -38.5t69.5 -14q55 0 99.5 25.5t77 66.5t55 93t35.5 107l139 658h153l-221 -1059h-153l16 96q-12 -16 -32.5 -35.5t-48.5 -37t-62.5 -29.5t-73.5 -12q-78 0 -121 31.5t-61 60.5 l-107 -504h-153z" />
<glyph unicode="&#xb6;" d="M201 860q0 27 4 56.5t10 62.5q25 117 83 193.5t137 121.5t169 62.5t180 17.5h521l-25 -121h-92l-297 -1390h-154l297 1390h-157l-297 -1390h-152l150 704q-80 0 -149 15.5t-119 49.5t-79.5 90t-29.5 138z" />
<glyph unicode="&#xb7;" d="M401 731q0 43 33 73t78 30q47 0 79 -30t32 -73q0 -41 -32 -71.5t-79 -30.5q-45 0 -78 30.5t-33 71.5z" />
<glyph unicode="&#xb8;" d="M260 -326l64 107q29 -14 55 -23q23 -10 48.5 -16t43.5 -6q16 0 36.5 6t27.5 35q2 14 -0.5 25.5t-18.5 19.5t-50 13t-91 5l106 187h140l-60 -113q8 0 34 -4t50.5 -19.5t39.5 -47t3 -87.5q-14 -63 -83.5 -107t-168.5 -34q-23 2 -52.5 12.5t-57.5 20.5q-33 12 -66 26z" />
<glyph unicode="&#xb9;" d="M471 676l21 100h141l98 459l-131 -49l-16 92l319 111l-131 -613h113l-21 -100h-393z" />
<glyph unicode="&#xba;" d="M289 479l24 113h639l-24 -113h-639zM451 944q0 23 3 46.5t7 49.5q33 147 120 241.5t224 94.5q106 0 159.5 -61.5t53.5 -165.5q0 -51 -12 -109q-16 -74 -49 -135t-78 -105t-100.5 -68.5t-114.5 -24.5q-100 0 -156.5 63.5t-56.5 173.5zM600 928q0 -61 22.5 -86t63.5 -25 q61 0 102 59.5t64 163.5q6 31 10 57.5t4 49.5q0 55 -20.5 86t-63.5 31q-23 0 -46 -10.5t-45.5 -37t-42 -69.5t-34.5 -107q-14 -63 -14 -112z" />
<glyph unicode="&#xbb;" horiz-adv-x="1218" d="M16 274l525 398l-357 393l125 106l422 -499l-635 -504zM471 274l524 398l-356 393l125 106l422 -499l-635 -504z" />
<glyph unicode="&#xbc;" horiz-adv-x="1222" d="M66 27l1060 1362l103 -64l-1057 -1356zM129 676l21 100h141l98 459l-131 -49l-16 92l319 111l-131 -613h111l-21 -100h-391zM602 158l234 547l127 -23l-203 -422h153l72 330h137l-71 -330h65l-20 -102h-66l-33 -158h-137l33 158h-291z" />
<glyph unicode="&#xbd;" horiz-adv-x="1236" d="M80 27l1059 1362l104 -64l-1059 -1356zM145 676l21 100h143l99 459l-132 -49l-16 92l318 111l-132 -613h113l-20 -100h-394zM575 2l17 84q80 74 147 137q59 53 113.5 104.5t77.5 69.5q41 33 62.5 61.5t25.5 69.5q4 27 -13.5 49.5t-56.5 22.5q-18 0 -37.5 -4t-38 -18.5 t-36 -40t-31.5 -70.5l-131 14q20 61 59 111q35 41 90.5 75.5t143.5 34.5q113 0 158.5 -54t29.5 -132q-10 -51 -49 -94t-86 -90l-19 -17q-41 -39 -84 -76.5t-77 -66.5q-41 -37 -82 -68h299l-21 -102h-461z" />
<glyph unicode="&#xbe;" horiz-adv-x="1228" d="M70 27l1060 1362l103 -64l-1057 -1356zM121 676l20 100q150 0 248 41t115 119q10 55 -19.5 79.5t-89.5 24.5q-51 0 -123 -14l17 78l237 178q-70 0 -143.5 1t-142.5 1l18 92h465l-16 -84l-232 -168q8 0 40 -5t64.5 -23.5t55 -53t10.5 -94.5q-14 -63 -56 -113.5t-101.5 -86 t-132 -55t-148.5 -19.5h-62q-12 0 -24 2zM606 158l236 547l127 -23l-203 -422h152l71 330h139l-71 -330h65l-20 -102h-66l-32 -158h-140l33 158h-291z" />
<glyph unicode="&#xbf;" d="M188 221q0 37 11 88q10 53 34.5 99.5t55 84t65.5 69.5t66 54q63 45 100 75t57.5 57.5t30.5 61.5t23 89h155q-10 -45 -21 -84t-31.5 -76t-50.5 -72.5t-77 -72.5l-51 -39q-78 -61 -130 -111.5t-69 -130.5q-6 -31 -6 -61q0 -66 36 -113t122 -47q51 0 99 22.5t89 62.5 t73 92.5t52 111.5l137 -37h7q-39 -109 -107 -190q-29 -35 -65.5 -69t-82.5 -60.5t-102.5 -43t-122.5 -16.5q-51 0 -104 13.5t-96 44t-70 79t-27 119.5zM637 1038l65 301h203l-65 -301h-203z" />
<glyph unicode="&#xc0;" d="M80 12l627 1346h180l59 -1346l-160 -41l-10 445h-356q-49 -109 -100.5 -222.5t-98.5 -222.5zM473 537h299l-14 637zM545 1591l102 131l332 -215l-76 -94z" />
<glyph unicode="&#xc1;" d="M80 12l627 1346h180l59 -1346l-160 -41l-10 445h-356q-49 -109 -100.5 -222.5t-98.5 -222.5zM473 537h299l-14 637zM506 1507l422 215l49 -131l-436 -178z" />
<glyph unicode="&#xc2;" d="M80 12l627 1346h180l59 -1346l-160 -41l-10 445h-356q-49 -109 -100.5 -222.5t-98.5 -222.5zM473 537h299l-14 637zM531 1493l366 211l277 -211l-66 -78l-243 129l-299 -129z" />
<glyph unicode="&#xc3;" d="M80 12l627 1346h180l59 -1346l-160 -41l-10 445h-356q-49 -109 -100.5 -222.5t-98.5 -222.5zM297 1479q-2 0 14.5 30.5t48.5 67.5t78 67.5t101 30.5q43 0 68.5 -18.5t47 -41t43 -41t56.5 -18.5q23 0 42.5 19.5t33.5 44.5q16 29 29 65l114 -36q-25 -59 -61 -107 q-31 -41 -76 -73.5t-102 -32.5q-51 0 -78 18.5t-45.5 40t-39 39.5t-57.5 18q-23 0 -43 -21.5t-36 -45.5q-20 -29 -39 -66zM473 537h299l-14 637z" />
<glyph unicode="&#xc4;" d="M80 12l627 1346h180l59 -1346l-160 -41l-10 445h-356q-49 -109 -100.5 -222.5t-98.5 -222.5zM473 537h299l-14 637zM510 1556q10 53 49 91t84 38q43 0 66.5 -38t13.5 -91t-50 -90t-83 -37q-45 0 -67.5 37t-12.5 90zM881 1556q10 53 49 91t84 38q43 0 66.5 -38t13.5 -91 t-50 -90t-83 -37q-45 0 -67.5 37t-12.5 90z" />
<glyph unicode="&#xc5;" d="M80 12l627 1346h180l59 -1346l-160 -41l-10 445h-356q-49 -109 -100.5 -222.5t-98.5 -222.5zM473 537h299l-14 637zM641 1507q8 37 30 71t53.5 58.5t69.5 39t77 14.5q78 0 122 -53.5t27 -129.5q-8 -37 -30.5 -69.5t-53 -57t-67.5 -39t-76 -14.5t-70.5 14.5t-52 39t-29 57 t-0.5 69.5zM744 1507q-10 -41 10.5 -68.5t56.5 -27.5q37 0 68 27.5t41 68.5q8 41 -11.5 69t-56.5 28t-68.5 -28t-39.5 -69z" />
<glyph unicode="&#xc6;" d="M-16 12l626 1344h621l-25 -121h-319l-99 -457h281l-25 -123h-280l-115 -534h320l-25 -121h-473l88 420q-57 0 -113.5 -1t-113.5 -1l-201 -447zM385 541q51 0 100.5 1t100.5 1l147 692h-37z" />
<glyph unicode="&#xc7;" d="M231 377q0 72 9.5 155.5t31.5 184.5q27 127 74 245.5t116.5 211t160 147.5t202.5 55q94 0 150.5 -36.5t89.5 -79.5q37 -51 53 -115l-139 -70q-12 49 -35 86q-20 33 -55 59.5t-90 26.5q-113 0 -211.5 -128t-151.5 -378q-23 -104 -36 -199.5t-13 -174.5q0 -115 37 -185.5 t133 -70.5q53 0 103.5 28.5t89.5 63.5q45 41 86 94l108 -88q-49 -63 -115 -115q-55 -43 -130.5 -77.5t-168.5 -34.5q-68 0 -122 21.5t-94 69.5t-61.5 122.5t-21.5 181.5zM260 -326l64 107q29 -14 55 -23q23 -10 48.5 -16t43.5 -6q16 0 36.5 6t27.5 35q2 14 -0.5 25.5 t-18.5 19.5t-50 13t-91 5l106 187h140l-60 -113q8 0 34 -4t50.5 -19.5t39.5 -47t3 -87.5q-14 -63 -83.5 -107t-168.5 -34q-23 2 -52.5 12.5t-57.5 20.5q-33 12 -66 26z" />
<glyph unicode="&#xc8;" d="M211 0l287 1358h669l-24 -123h-518l-99 -457h435l-25 -123h-434l-115 -532h518l-24 -123h-670zM654 1591l102 131l332 -215l-76 -94z" />
<glyph unicode="&#xc9;" d="M211 0l287 1358h669l-24 -123h-518l-99 -457h435l-25 -123h-434l-115 -532h518l-24 -123h-670zM661 1507l422 215l49 -131l-436 -178z" />
<glyph unicode="&#xca;" d="M211 0l287 1358h669l-24 -123h-518l-99 -457h435l-25 -123h-434l-115 -532h518l-24 -123h-670zM525 1493l366 211l277 -211l-66 -78l-243 129l-299 -129z" />
<glyph unicode="&#xcb;" d="M211 0l287 1358h669l-24 -123h-518l-99 -457h435l-25 -123h-434l-115 -532h518l-24 -123h-670zM555 1556q10 53 49 91t84 38q43 0 66.5 -38t13.5 -91t-50 -90t-83 -37q-45 0 -67.5 37t-12.5 90zM926 1556q10 53 49 91t84 38q43 0 66.5 -38t13.5 -91t-50 -90t-83 -37 q-45 0 -67.5 37t-12.5 90z" />
<glyph unicode="&#xcc;" d="M254 0l25 123h182l237 1112h-182l25 123h520l-25 -123h-184l-238 -1112h185l-25 -123h-520zM646 1591l102 131l332 -215l-76 -94z" />
<glyph unicode="&#xcd;" d="M254 0l25 123h182l237 1112h-182l25 123h520l-25 -123h-184l-238 -1112h185l-25 -123h-520zM612 1507l422 215l49 -131l-436 -178z" />
<glyph unicode="&#xce;" d="M254 0l25 123h182l237 1112h-182l25 123h520l-25 -123h-184l-238 -1112h185l-25 -123h-520zM510 1493l366 211l277 -211l-66 -78l-243 129l-299 -129z" />
<glyph unicode="&#xcf;" d="M254 0l25 123h182l237 1112h-182l25 123h520l-25 -123h-184l-238 -1112h185l-25 -123h-520zM528 1556q10 53 49 91t84 38q43 0 66.5 -38t13.5 -91t-50 -90t-83 -37q-45 0 -67.5 37t-12.5 90zM899 1556q10 53 49 91t84 38q43 0 66.5 -38t13.5 -91t-50 -90t-83 -37 q-45 0 -67.5 37t-12.5 90z" />
<glyph unicode="&#xd0;" d="M137 0l25 123h110l109 506h-111l23 110h110l107 496h-111l25 123h367q186 0 264 -85t78 -259q0 -139 -43 -336q-43 -207 -100.5 -339t-129.5 -207t-163 -103.5t-201 -28.5h-359zM426 123h102q78 0 137.5 24.5t106.5 88t85 171t73 271.5q23 104 33 184t10 142 q0 131 -43 181t-115 50h-151l-107 -496h158l-23 -110h-157z" />
<glyph unicode="&#xd1;" d="M152 0l286 1358h189l151 -1114q59 287 115.5 557t116.5 557h153l-286 -1358h-189l-147 1122q-59 -283 -117.5 -561t-118.5 -561h-153zM493 1479q-2 0 14.5 30.5t48.5 67.5t78 67.5t101 30.5q43 0 68.5 -18.5t47 -41t43 -41t56.5 -18.5q23 0 42.5 19.5t33.5 44.5 q16 29 29 65l114 -36q-25 -59 -61 -107q-31 -41 -76 -73.5t-102 -32.5q-51 0 -78 18.5t-45.5 40t-39 39.5t-57.5 18q-23 0 -43 -21.5t-36 -45.5q-20 -29 -39 -66z" />
<glyph unicode="&#xd2;" d="M225 338q0 133 43 342q31 143 76 270t109.5 221.5t150.5 149.5t197 55q78 0 131 -25.5t87 -72.5t48 -112.5t14 -145.5q0 -76 -11.5 -162t-31.5 -178q-45 -209 -103 -344t-127 -214t-145.5 -109.5t-156.5 -30.5q-59 0 -110.5 16t-89.5 57t-59.5 109.5t-21.5 173.5z M381 328q0 -68 11 -111t31.5 -66.5t48.5 -32.5t60 -9q47 0 93.5 19t89.5 79.5t85 173.5t81 299q25 115 38 204t13 156q0 109 -37 159t-121 50q-66 0 -117 -39t-93 -112.5t-74.5 -179t-61.5 -238.5q-25 -117 -36 -203t-11 -149zM611 1591l102 131l332 -215l-76 -94z" />
<glyph unicode="&#xd3;" d="M225 338q0 133 43 342q31 143 76 270t109.5 221.5t150.5 149.5t197 55q78 0 131 -25.5t87 -72.5t48 -112.5t14 -145.5q0 -76 -11.5 -162t-31.5 -178q-45 -209 -103 -344t-127 -214t-145.5 -109.5t-156.5 -30.5q-59 0 -110.5 16t-89.5 57t-59.5 109.5t-21.5 173.5z M381 328q0 -68 11 -111t31.5 -66.5t48.5 -32.5t60 -9q47 0 93.5 19t89.5 79.5t85 173.5t81 299q25 115 38 204t13 156q0 109 -37 159t-121 50q-66 0 -117 -39t-93 -112.5t-74.5 -179t-61.5 -238.5q-25 -117 -36 -203t-11 -149zM612 1507l422 215l49 -131l-436 -178z" />
<glyph unicode="&#xd4;" d="M225 338q0 133 43 342q31 143 76 270t109.5 221.5t150.5 149.5t197 55q78 0 131 -25.5t87 -72.5t48 -112.5t14 -145.5q0 -76 -11.5 -162t-31.5 -178q-45 -209 -103 -344t-127 -214t-145.5 -109.5t-156.5 -30.5q-59 0 -110.5 16t-89.5 57t-59.5 109.5t-21.5 173.5z M381 328q0 -68 11 -111t31.5 -66.5t48.5 -32.5t60 -9q47 0 93.5 19t89.5 79.5t85 173.5t81 299q25 115 38 204t13 156q0 109 -37 159t-121 50q-66 0 -117 -39t-93 -112.5t-74.5 -179t-61.5 -238.5q-25 -117 -36 -203t-11 -149zM494 1493l366 211l277 -211l-66 -78l-243 129 l-299 -129z" />
<glyph unicode="&#xd5;" d="M225 338q0 133 43 342q31 143 76 270t109.5 221.5t150.5 149.5t197 55q78 0 131 -25.5t87 -72.5t48 -112.5t14 -145.5q0 -76 -11.5 -162t-31.5 -178q-45 -209 -103 -344t-127 -214t-145.5 -109.5t-156.5 -30.5q-59 0 -110.5 16t-89.5 57t-59.5 109.5t-21.5 173.5z M381 328q0 -68 11 -111t31.5 -66.5t48.5 -32.5t60 -9q47 0 93.5 19t89.5 79.5t85 173.5t81 299q25 115 38 204t13 156q0 109 -37 159t-121 50q-66 0 -117 -39t-93 -112.5t-74.5 -179t-61.5 -238.5q-25 -117 -36 -203t-11 -149zM540 1479q-2 0 14.5 30.5t48.5 67.5t78 67.5 t101 30.5q43 0 68.5 -18.5t47 -41t43 -41t56.5 -18.5q23 0 42.5 19.5t33.5 44.5q16 29 29 65l114 -36q-25 -59 -61 -107q-31 -41 -76 -73.5t-102 -32.5q-51 0 -78 18.5t-45.5 40t-39 39.5t-57.5 18q-23 0 -43 -21.5t-36 -45.5q-20 -29 -39 -66z" />
<glyph unicode="&#xd6;" d="M225 338q0 133 43 342q31 143 76 270t109.5 221.5t150.5 149.5t197 55q78 0 131 -25.5t87 -72.5t48 -112.5t14 -145.5q0 -76 -11.5 -162t-31.5 -178q-45 -209 -103 -344t-127 -214t-145.5 -109.5t-156.5 -30.5q-59 0 -110.5 16t-89.5 57t-59.5 109.5t-21.5 173.5z M381 328q0 -68 11 -111t31.5 -66.5t48.5 -32.5t60 -9q47 0 93.5 19t89.5 79.5t85 173.5t81 299q25 115 38 204t13 156q0 109 -37 159t-121 50q-66 0 -117 -39t-93 -112.5t-74.5 -179t-61.5 -238.5q-25 -117 -36 -203t-11 -149zM551 1556q10 53 49 91t84 38q43 0 66.5 -38 t13.5 -91t-50 -90t-83 -37q-45 0 -67.5 37t-12.5 90zM922 1556q10 53 49 91t84 38q43 0 66.5 -38t13.5 -91t-50 -90t-83 -37q-45 0 -67.5 37t-12.5 90z" />
<glyph unicode="&#xd7;" horiz-adv-x="1185" d="M53 256l477 477l-477 477l70 70l477 -477l479 477l68 -70l-477 -477l477 -477l-68 -72l-479 480l-477 -480z" />
<glyph unicode="&#xd8;" d="M88 43l156 205q-2 16 -2 31.5v33.5q0 72 10 165t33 200q31 143 76 271t109.5 222.5t149.5 149.5t195 55q78 0 131 -25.5t86 -68.5l86 117l103 -66l-138 -178q12 -59 13 -133q0 -78 -11.5 -165t-31.5 -179q-45 -207 -103.5 -342t-127 -214t-145.5 -109.5t-157 -30.5 q-78 0 -138 25.5t-97 96.5l-95 -124zM399 256q14 -86 54.5 -116.5t93.5 -30.5q47 0 93 19t89 79.5t85 173.5t81 297q18 92 30.5 161.5t16.5 129.5zM403 457l527 692q-36 100 -142 100q-66 0 -116.5 -39t-92.5 -112.5t-75 -179t-62 -240.5q-14 -66 -24 -120t-15 -101z" />
<glyph unicode="&#xd9;" d="M231 238q0 35 11 86l219 1034h153l-213 -1002q-12 -53 -12 -100q0 -63 31 -104t117 -41q59 0 101 22.5t70.5 57t45 78.5t24.5 87l213 1002h152l-217 -1028q-16 -78 -55.5 -142.5t-94.5 -110.5t-123.5 -70.5t-142.5 -24.5q-127 0 -203 67.5t-76 188.5zM588 1591l102 131 l332 -215l-76 -94z" />
<glyph unicode="&#xda;" d="M231 238q0 35 11 86l219 1034h153l-213 -1002q-12 -53 -12 -100q0 -63 31 -104t117 -41q59 0 101 22.5t70.5 57t45 78.5t24.5 87l213 1002h152l-217 -1028q-16 -78 -55.5 -142.5t-94.5 -110.5t-123.5 -70.5t-142.5 -24.5q-127 0 -203 67.5t-76 188.5zM655 1507l422 215 l49 -131l-436 -178z" />
<glyph unicode="&#xdb;" d="M231 238q0 35 11 86l219 1034h153l-213 -1002q-12 -53 -12 -100q0 -63 31 -104t117 -41q59 0 101 22.5t70.5 57t45 78.5t24.5 87l213 1002h152l-217 -1028q-16 -78 -55.5 -142.5t-94.5 -110.5t-123.5 -70.5t-142.5 -24.5q-127 0 -203 67.5t-76 188.5zM531 1493l366 211 l277 -211l-66 -78l-243 129l-299 -129z" />
<glyph unicode="&#xdc;" d="M231 238q0 35 11 86l219 1034h153l-213 -1002q-12 -53 -12 -100q0 -63 31 -104t117 -41q59 0 101 22.5t70.5 57t45 78.5t24.5 87l213 1002h152l-217 -1028q-16 -78 -55.5 -142.5t-94.5 -110.5t-123.5 -70.5t-142.5 -24.5q-127 0 -203 67.5t-76 188.5zM526 1556 q10 53 49 91t84 38q43 0 66.5 -38t13.5 -91t-50 -90t-83 -37q-45 0 -67.5 37t-12.5 90zM897 1556q10 53 49 91t84 38q43 0 66.5 -38t13.5 -91t-50 -90t-83 -37q-45 0 -67.5 37t-12.5 90z" />
<glyph unicode="&#xdd;" d="M362 1331l154 58l139 -691q106 172 217 345.5t218 345.5l127 -58l-521 -794l-112 -537h-154l113 537zM614 1507l422 215l49 -131l-436 -178z" />
<glyph unicode="&#xde;" d="M217 0l287 1358h153l-63 -303h184q45 0 95.5 -10.5t93.5 -39t70.5 -77.5t27.5 -127q0 -47 -12 -105q-25 -111 -71 -186.5t-102.5 -121.5t-117 -65.5t-109.5 -19.5h-219l-63 -303h-154zM461 428h192q35 0 72 18.5t69.5 50t57.5 76.5t35 99q12 55 12 102q0 70 -30.5 114 t-108.5 44h-193z" />
<glyph unicode="&#xdf;" d="M193 0l172 813q12 57 43.5 105.5t77.5 84t103.5 55t121.5 19.5q111 0 164 -55t53 -141q0 -31 -6 -64q-12 -59 -41 -101t-59.5 -70t-56.5 -42t-30 -16q6 -2 34 -10.5t58.5 -31t55 -62.5t24.5 -103q0 -39 -8 -74q-20 -96 -63 -155.5t-96.5 -93t-113 -46t-110.5 -12.5h-110 l24 121h117q27 0 56.5 8t56 28.5t48 55.5t33.5 88q4 18 6.5 33.5t2.5 32.5q0 137 -185 137l27 123q18 0 44 11t50.5 33.5t45 55.5t30.5 76q31 147 -92 147q-66 0 -104 -43t-56 -135l-164 -772h-153z" />
<glyph unicode="&#xe0;" d="M129 211q0 23 2 42t6 36q8 37 32 82t67 88t105 76.5t148 48.5q33 6 75 11t81 10t67.5 8t35.5 3q2 0 6 25t8 47q14 63 14 115q0 51 -14 79.5t-37 43t-50.5 17.5t-56.5 3q-35 0 -84 -16.5t-94 -34.5q-53 -23 -106 -49q-6 31 -10 55q-4 23 -7.5 40t-1.5 17l33 18 q33 17 83 37.5t111.5 38t123.5 17.5q51 0 96 -11t78.5 -39t54 -72t20.5 -109q0 -57 -14 -117q-20 -100 -35.5 -173t-28 -128t-20.5 -94t-16 -72q-14 -63 -20.5 -109.5t-10.5 -78.5q-4 -37 -2 -66h-129q0 18 2 43q2 23 6 53.5t15 75.5q0 2 -22 -28.5t-63.5 -68.5t-103 -70 t-139.5 -32q-61 0 -100 22.5t-63 57.5t-33 77t-9 81zM266 217q0 -55 31 -83t84 -28q33 0 76 15.5t85 41t78.5 62.5t61.5 80q0 2 6 33t13.5 65.5t14.5 64.5t7 28t-24.5 -4.5t-60.5 -5.5t-74 -6t-64 -9q-25 -6 -59.5 -19.5t-67.5 -36t-59.5 -57t-39.5 -79.5q-8 -31 -8 -62z M525 1292l102 131l332 -215l-76 -94z" />
<glyph unicode="&#xe1;" d="M129 211q0 23 2 42t6 36q8 37 32 82t67 88t105 76.5t148 48.5q33 6 75 11t81 10t67.5 8t35.5 3q2 0 6 25t8 47q14 63 14 115q0 51 -14 79.5t-37 43t-50.5 17.5t-56.5 3q-35 0 -84 -16.5t-94 -34.5q-53 -23 -106 -49q-6 31 -10 55q-4 23 -7.5 40t-1.5 17l33 18 q33 17 83 37.5t111.5 38t123.5 17.5q51 0 96 -11t78.5 -39t54 -72t20.5 -109q0 -57 -14 -117q-20 -100 -35.5 -173t-28 -128t-20.5 -94t-16 -72q-14 -63 -20.5 -109.5t-10.5 -78.5q-4 -37 -2 -66h-129q0 18 2 43q2 23 6 53.5t15 75.5q0 2 -22 -28.5t-63.5 -68.5t-103 -70 t-139.5 -32q-61 0 -100 22.5t-63 57.5t-33 77t-9 81zM266 217q0 -55 31 -83t84 -28q33 0 76 15.5t85 41t78.5 62.5t61.5 80q0 2 6 33t13.5 65.5t14.5 64.5t7 28t-24.5 -4.5t-60.5 -5.5t-74 -6t-64 -9q-25 -6 -59.5 -19.5t-67.5 -36t-59.5 -57t-39.5 -79.5q-8 -31 -8 -62z M461 1208l422 215l49 -131l-436 -178z" />
<glyph unicode="&#xe2;" d="M129 211q0 23 2 42t6 36q8 37 32 82t67 88t105 76.5t148 48.5q33 6 75 11t81 10t67.5 8t35.5 3q2 0 6 25t8 47q14 63 14 115q0 51 -14 79.5t-37 43t-50.5 17.5t-56.5 3q-35 0 -84 -16.5t-94 -34.5q-53 -23 -106 -49q-6 31 -10 55q-4 23 -7.5 40t-1.5 17l33 18 q33 17 83 37.5t111.5 38t123.5 17.5q51 0 96 -11t78.5 -39t54 -72t20.5 -109q0 -57 -14 -117q-20 -100 -35.5 -173t-28 -128t-20.5 -94t-16 -72q-14 -63 -20.5 -109.5t-10.5 -78.5q-4 -37 -2 -66h-129q0 18 2 43q2 23 6 53.5t15 75.5q0 2 -22 -28.5t-63.5 -68.5t-103 -70 t-139.5 -32q-61 0 -100 22.5t-63 57.5t-33 77t-9 81zM266 217q0 -55 31 -83t84 -28q33 0 76 15.5t85 41t78.5 62.5t61.5 80q0 2 6 33t13.5 65.5t14.5 64.5t7 28t-24.5 -4.5t-60.5 -5.5t-74 -6t-64 -9q-25 -6 -59.5 -19.5t-67.5 -36t-59.5 -57t-39.5 -79.5q-8 -31 -8 -62z M367 1194l366 211l277 -211l-66 -78l-243 129l-299 -129z" />
<glyph unicode="&#xe3;" d="M129 211q0 23 2 42t6 36q8 37 32 82t67 88t105 76.5t148 48.5q33 6 75 11t81 10t67.5 8t35.5 3q2 0 6 25t8 47q14 63 14 115q0 51 -14 79.5t-37 43t-50.5 17.5t-56.5 3q-35 0 -84 -16.5t-94 -34.5q-53 -23 -106 -49q-6 31 -10 55q-4 23 -7.5 40t-1.5 17l33 18 q33 17 83 37.5t111.5 38t123.5 17.5q51 0 96 -11t78.5 -39t54 -72t20.5 -109q0 -57 -14 -117q-20 -100 -35.5 -173t-28 -128t-20.5 -94t-16 -72q-14 -63 -20.5 -109.5t-10.5 -78.5q-4 -37 -2 -66h-129q0 18 2 43q2 23 6 53.5t15 75.5q0 2 -22 -28.5t-63.5 -68.5t-103 -70 t-139.5 -32q-61 0 -100 22.5t-63 57.5t-33 77t-9 81zM266 217q0 -55 31 -83t84 -28q33 0 76 15.5t85 41t78.5 62.5t61.5 80q0 2 6 33t13.5 65.5t14.5 64.5t7 28t-24.5 -4.5t-60.5 -5.5t-74 -6t-64 -9q-25 -6 -59.5 -19.5t-67.5 -36t-59.5 -57t-39.5 -79.5q-8 -31 -8 -62z M379 1180q-2 0 14.5 30.5t48.5 67.5t78 67.5t101 30.5q43 0 68.5 -18.5t47 -41t43 -41t56.5 -18.5q23 0 42.5 19.5t33.5 44.5q16 29 29 65l114 -36q-25 -59 -61 -107q-31 -41 -76 -73.5t-102 -32.5q-51 0 -78 18.5t-45.5 40t-39 39.5t-57.5 18q-23 0 -43 -21.5t-36 -45.5 q-20 -29 -39 -66z" />
<glyph unicode="&#xe4;" d="M129 211q0 23 2 42t6 36q8 37 32 82t67 88t105 76.5t148 48.5q33 6 75 11t81 10t67.5 8t35.5 3q2 0 6 25t8 47q14 63 14 115q0 51 -14 79.5t-37 43t-50.5 17.5t-56.5 3q-35 0 -84 -16.5t-94 -34.5q-53 -23 -106 -49q-6 31 -10 55q-4 23 -7.5 40t-1.5 17l33 18 q33 17 83 37.5t111.5 38t123.5 17.5q51 0 96 -11t78.5 -39t54 -72t20.5 -109q0 -57 -14 -117q-20 -100 -35.5 -173t-28 -128t-20.5 -94t-16 -72q-14 -63 -20.5 -109.5t-10.5 -78.5q-4 -37 -2 -66h-129q0 18 2 43q2 23 6 53.5t15 75.5q0 2 -22 -28.5t-63.5 -68.5t-103 -70 t-139.5 -32q-61 0 -100 22.5t-63 57.5t-33 77t-9 81zM266 217q0 -55 31 -83t84 -28q33 0 76 15.5t85 41t78.5 62.5t61.5 80q0 2 6 33t13.5 65.5t14.5 64.5t7 28t-24.5 -4.5t-60.5 -5.5t-74 -6t-64 -9q-25 -6 -59.5 -19.5t-67.5 -36t-59.5 -57t-39.5 -79.5q-8 -31 -8 -62z M385 1257q10 53 49 91t84 38q43 0 66.5 -38t13.5 -91t-50 -90t-83 -37q-45 0 -67.5 37t-12.5 90zM756 1257q10 53 49 91t84 38q43 0 66.5 -38t13.5 -91t-50 -90t-83 -37q-45 0 -67.5 37t-12.5 90z" />
<glyph unicode="&#xe5;" d="M129 211q0 23 2 42t6 36q8 37 32 82t67 88t105 76.5t148 48.5q33 6 75 11t81 10t67.5 8t35.5 3q2 0 6 25t8 47q14 63 14 115q0 51 -14 79.5t-37 43t-50.5 17.5t-56.5 3q-35 0 -84 -16.5t-94 -34.5q-53 -23 -106 -49q-6 31 -10 55q-4 23 -7.5 40t-1.5 17l33 18 q33 17 83 37.5t111.5 38t123.5 17.5q51 0 96 -11t78.5 -39t54 -72t20.5 -109q0 -57 -14 -117q-20 -100 -35.5 -173t-28 -128t-20.5 -94t-16 -72q-14 -63 -20.5 -109.5t-10.5 -78.5q-4 -37 -2 -66h-129q0 18 2 43q2 23 6 53.5t15 75.5q0 2 -22 -28.5t-63.5 -68.5t-103 -70 t-139.5 -32q-61 0 -100 22.5t-63 57.5t-33 77t-9 81zM266 217q0 -55 31 -83t84 -28q33 0 76 15.5t85 41t78.5 62.5t61.5 80q0 2 6 33t13.5 65.5t14.5 64.5t7 28t-24.5 -4.5t-60.5 -5.5t-74 -6t-64 -9q-25 -6 -59.5 -19.5t-67.5 -36t-59.5 -57t-39.5 -79.5q-8 -31 -8 -62z M518 1300q8 37 30 71t53.5 58.5t69.5 39t77 14.5q78 0 122 -53.5t27 -129.5q-8 -37 -30.5 -69.5t-53 -57t-67.5 -39t-76 -14.5t-70.5 14.5t-52 39t-29 57t-0.5 69.5zM621 1300q-10 -41 10.5 -68.5t56.5 -27.5q37 0 68 27.5t41 68.5q8 41 -11.5 69t-56.5 28t-68.5 -28 t-39.5 -69z" />
<glyph unicode="&#xe6;" horiz-adv-x="1503" d="M129 211q0 23 2 42t6 36q8 37 32 82t67 88t105 76.5t148 48.5q33 6 75 11t81 10t67.5 8t35.5 3q2 0 6 25t8 47q14 63 14 115q0 51 -14 79.5t-37 43t-50.5 17.5t-56.5 3q-35 0 -84 -16.5t-94 -34.5q-53 -23 -106 -49q-6 31 -10 55q-4 23 -7.5 40t-1.5 17l33 18 q33 17 83 37.5t111.5 38t123.5 17.5q86 0 153.5 -35t87.5 -125q82 92 173 125t159 33q55 0 106.5 -15.5t90.5 -50t61.5 -94t22.5 -145.5q0 -100 -37 -248h-17q-16 0 -46.5 1t-72.5 1h-90q-96 0 -201.5 -1t-185.5 -1q-6 -33 -10 -62.5t-4 -58.5q0 -63 15.5 -117.5t45 -94.5 t71.5 -62.5t95 -22.5q66 0 113 9.5t80 21.5q37 12 65 31l15 -119q-33 -18 -76 -31q-37 -10 -90 -19t-123 -9q-92 0 -151.5 20t-97.5 54t-58.5 79t-34.5 94q0 2 -33 -37.5t-86 -88t-123.5 -88.5t-148.5 -40q-61 0 -100 22.5t-63 57.5t-33 77t-9 81zM266 217q0 -55 31 -83 t84 -28q33 0 76 15.5t85 41t78.5 62.5t61.5 80q0 2 5 29.5t12.5 61.5t13.5 63.5t8 34.5q-2 -2 -27.5 -3.5t-60.5 -4.5t-72 -6t-61 -9q-25 -6 -59.5 -19.5t-67.5 -36t-59.5 -57t-39.5 -79.5q-8 -31 -8 -62zM901 633h229h84t73 1t42 1h31q4 14 8 35q4 16 6 38.5t2 47.5 q0 33 -6 67.5t-23.5 62t-48 45t-79.5 17.5q-41 0 -77 -13t-67 -35.5t-55.5 -51.5t-42.5 -57q-45 -70 -76 -158z" />
<glyph unicode="&#xe7;" d="M193 356q0 82 20 179q37 170 107.5 274t153.5 160.5t165 75t141 18.5q49 0 86 -9.5t61.5 -20.5t37 -19t10.5 -6t-11.5 -18.5t-21.5 -45.5q-14 -29 -31 -67q-16 18 -39 32q-20 12 -47.5 22.5t-64.5 10.5q-43 0 -101.5 -16.5t-117 -62.5t-110.5 -128t-79 -211 q-18 -86 -18 -151q0 -84 22.5 -137.5t57.5 -86t73.5 -45t73.5 -12.5q41 0 78 10.5t66 22.5q35 14 63 35l8 -125q-37 -18 -78 -33q-35 -12 -79 -21.5t-87 -9.5q-47 0 -106 17.5t-111.5 60.5t-87 118t-34.5 189zM260 -326l64 107q29 -14 55 -23q23 -10 48.5 -16t43.5 -6 q16 0 36.5 6t27.5 35q2 14 -0.5 25.5t-18.5 19.5t-50 13t-91 5l106 187h140l-60 -113q8 0 34 -4t50.5 -19.5t39.5 -47t3 -87.5q-14 -63 -83.5 -107t-168.5 -34q-23 2 -52.5 12.5t-57.5 20.5q-33 12 -66 26z" />
<glyph unicode="&#xe8;" d="M174 373q0 84 21 180q33 160 94 260t130.5 156.5t141.5 77t127 20.5t106.5 -15.5t90.5 -50t61.5 -94t22.5 -145.5q0 -100 -37 -248h-16q-17 0 -47.5 1t-72.5 1h-89q-96 0 -202 -1t-186 -1q-6 -33 -10 -62.5t-4 -58.5q0 -63 15.5 -117.5t45 -94.5t71.5 -62.5t95 -22.5 q66 0 113 9.5t80 21.5q37 12 66 31l14 -119q-33 -18 -76 -31q-37 -10 -90 -19t-123 -9q-59 0 -119.5 20t-109.5 67.5t-81 122t-32 183.5zM350 633h230h84t72.5 1t41.5 1h31q4 14 8 35q4 16 6 38.5t2 47.5q0 33 -6 67.5t-23.5 62t-48 45t-79.5 17.5q-41 0 -77 -13 t-66.5 -35.5t-55.5 -51.5t-43 -57q-45 -70 -76 -158zM486 1292l102 131l332 -215l-76 -94z" />
<glyph unicode="&#xe9;" d="M174 373q0 84 21 180q33 160 94 260t130.5 156.5t141.5 77t127 20.5t106.5 -15.5t90.5 -50t61.5 -94t22.5 -145.5q0 -100 -37 -248h-16q-17 0 -47.5 1t-72.5 1h-89q-96 0 -202 -1t-186 -1q-6 -33 -10 -62.5t-4 -58.5q0 -63 15.5 -117.5t45 -94.5t71.5 -62.5t95 -22.5 q66 0 113 9.5t80 21.5q37 12 66 31l14 -119q-33 -18 -76 -31q-37 -10 -90 -19t-123 -9q-59 0 -119.5 20t-109.5 67.5t-81 122t-32 183.5zM350 633h230h84t72.5 1t41.5 1h31q4 14 8 35q4 16 6 38.5t2 47.5q0 33 -6 67.5t-23.5 62t-48 45t-79.5 17.5q-41 0 -77 -13 t-66.5 -35.5t-55.5 -51.5t-43 -57q-45 -70 -76 -158zM536 1208l422 215l49 -131l-436 -178z" />
<glyph unicode="&#xea;" d="M174 373q0 84 21 180q33 160 94 260t130.5 156.5t141.5 77t127 20.5t106.5 -15.5t90.5 -50t61.5 -94t22.5 -145.5q0 -100 -37 -248h-16q-17 0 -47.5 1t-72.5 1h-89q-96 0 -202 -1t-186 -1q-6 -33 -10 -62.5t-4 -58.5q0 -63 15.5 -117.5t45 -94.5t71.5 -62.5t95 -22.5 q66 0 113 9.5t80 21.5q37 12 66 31l14 -119q-33 -18 -76 -31q-37 -10 -90 -19t-123 -9q-59 0 -119.5 20t-109.5 67.5t-81 122t-32 183.5zM350 633h230h84t72.5 1t41.5 1h31q4 14 8 35q4 16 6 38.5t2 47.5q0 33 -6 67.5t-23.5 62t-48 45t-79.5 17.5q-41 0 -77 -13 t-66.5 -35.5t-55.5 -51.5t-43 -57q-45 -70 -76 -158zM394 1194l366 211l277 -211l-66 -78l-243 129l-299 -129z" />
<glyph unicode="&#xeb;" d="M174 373q0 84 21 180q33 160 94 260t130.5 156.5t141.5 77t127 20.5t106.5 -15.5t90.5 -50t61.5 -94t22.5 -145.5q0 -100 -37 -248h-16q-17 0 -47.5 1t-72.5 1h-89q-96 0 -202 -1t-186 -1q-6 -33 -10 -62.5t-4 -58.5q0 -63 15.5 -117.5t45 -94.5t71.5 -62.5t95 -22.5 q66 0 113 9.5t80 21.5q37 12 66 31l14 -119q-33 -18 -76 -31q-37 -10 -90 -19t-123 -9q-59 0 -119.5 20t-109.5 67.5t-81 122t-32 183.5zM350 633h230h84t72.5 1t41.5 1h31q4 14 8 35q4 16 6 38.5t2 47.5q0 33 -6 67.5t-23.5 62t-48 45t-79.5 17.5q-41 0 -77 -13 t-66.5 -35.5t-55.5 -51.5t-43 -57q-45 -70 -76 -158zM469 1257q10 53 49 91t84 38q43 0 66.5 -38t13.5 -91t-50 -90t-83 -37q-45 0 -67.5 37t-12.5 90zM840 1257q10 53 49 91t84 38q43 0 66.5 -38t13.5 -91t-50 -90t-83 -37q-45 0 -67.5 37t-12.5 90z" />
<glyph unicode="&#xec;" d="M295 0l24 121h142l174 817h-141l26 123h438l-26 -123h-146l-174 -817h146l-25 -121h-438zM549 1292l102 131l332 -215l-76 -94z" />
<glyph unicode="&#xed;" d="M295 0l24 121h142l174 817h-141l26 123h438l-26 -123h-146l-174 -817h146l-25 -121h-438zM565 1208l422 215l49 -131l-436 -178z" />
<glyph unicode="&#xee;" d="M295 0l24 121h142l174 817h-141l26 123h438l-26 -123h-146l-174 -817h146l-25 -121h-438zM453 1194l366 211l277 -211l-66 -78l-243 129l-299 -129z" />
<glyph unicode="&#xef;" d="M295 0l24 121h142l174 817h-141l26 123h438l-26 -123h-146l-174 -817h146l-25 -121h-438zM493 1257q10 53 49 91t84 38q43 0 66.5 -38t13.5 -91t-50 -90t-83 -37q-45 0 -67.5 37t-12.5 90zM864 1257q10 53 49 91t84 38q43 0 66.5 -38t13.5 -91t-50 -90t-83 -37 q-45 0 -67.5 37t-12.5 90z" />
<glyph unicode="&#xf0;" d="M141 0l25 121h106l74 346h-108l26 123h109l73 348h-106l27 119h364q100 0 169 -19.5t110 -56.5t59 -91t18 -124q0 -55 -9 -119.5t-25 -138.5q-29 -131 -70 -226.5t-106.5 -158t-160.5 -93t-231 -30.5h-344zM426 121h137q57 0 107.5 17.5t92.5 62.5t75.5 123.5t60.5 203.5 q27 121 27 207q0 59 -13.5 98t-38 63t-58.5 33t-75 9h-141l-74 -348h144l-27 -123h-143z" />
<glyph unicode="&#xf1;" d="M184 0l224 1057h129l-35 -170q45 53 98 92q45 35 103.5 62.5t123.5 25.5q100 -4 146.5 -61.5t46.5 -157.5q0 -57 -16 -135q-8 -39 -19.5 -90.5t-24 -108.5t-24.5 -117.5t-25 -117.5q-29 -133 -59 -279h-129q33 150 59 283q12 57 23.5 115.5t23 112.5t20.5 99t15 74 q10 43 15.5 81t5.5 69q0 53 -20.5 83.5t-69.5 32.5q-66 2 -124.5 -28.5t-103.5 -67.5q-53 -43 -96 -100l-158 -754h-129zM407 1180q-2 0 14.5 30.5t48.5 67.5t78 67.5t101 30.5q43 0 68.5 -18.5t47 -41t43 -41t56.5 -18.5q23 0 42.5 19.5t33.5 44.5q16 29 29 65l114 -36 q-25 -59 -61 -107q-31 -41 -76 -73.5t-102 -32.5q-51 0 -78 18.5t-45.5 40t-39 39.5t-57.5 18q-23 0 -43 -21.5t-36 -45.5q-20 -29 -39 -66z" />
<glyph unicode="&#xf2;" d="M190 340q0 45 5.5 94t17.5 105q29 139 83 239.5t122.5 165t146.5 95t158 30.5q137 0 215 -96t78 -271q0 -84 -23 -192q-29 -129 -82 -230.5t-122.5 -170t-148.5 -104.5t-159 -36q-129 0 -210 94.5t-81 276.5zM330 348q0 -78 18.5 -129t46 -82t57 -43t52.5 -12 q37 0 88 22.5t103.5 74.5t97.5 136t69 205q10 51 15.5 95t5.5 81q0 70 -15.5 118t-41 78t-58.5 43t-66 13q-51 0 -103 -20.5t-98 -69.5t-86 -133t-67 -213q-10 -47 -14 -88t-4 -76zM572 1292l102 131l332 -215l-76 -94z" />
<glyph unicode="&#xf3;" d="M190 340q0 45 5.5 94t17.5 105q29 139 83 239.5t122.5 165t146.5 95t158 30.5q137 0 215 -96t78 -271q0 -84 -23 -192q-29 -129 -82 -230.5t-122.5 -170t-148.5 -104.5t-159 -36q-129 0 -210 94.5t-81 276.5zM330 348q0 -78 18.5 -129t46 -82t57 -43t52.5 -12 q37 0 88 22.5t103.5 74.5t97.5 136t69 205q10 51 15.5 95t5.5 81q0 70 -15.5 118t-41 78t-58.5 43t-66 13q-51 0 -103 -20.5t-98 -69.5t-86 -133t-67 -213q-10 -47 -14 -88t-4 -76zM579 1208l422 215l49 -131l-436 -178z" />
<glyph unicode="&#xf4;" d="M190 340q0 45 5.5 94t17.5 105q29 139 83 239.5t122.5 165t146.5 95t158 30.5q137 0 215 -96t78 -271q0 -84 -23 -192q-29 -129 -82 -230.5t-122.5 -170t-148.5 -104.5t-159 -36q-129 0 -210 94.5t-81 276.5zM330 348q0 -78 18.5 -129t46 -82t57 -43t52.5 -12 q37 0 88 22.5t103.5 74.5t97.5 136t69 205q10 51 15.5 95t5.5 81q0 70 -15.5 118t-41 78t-58.5 43t-66 13q-51 0 -103 -20.5t-98 -69.5t-86 -133t-67 -213q-10 -47 -14 -88t-4 -76zM416 1194l366 211l277 -211l-66 -78l-243 129l-299 -129z" />
<glyph unicode="&#xf5;" d="M190 340q0 45 5.5 94t17.5 105q29 139 83 239.5t122.5 165t146.5 95t158 30.5q137 0 215 -96t78 -271q0 -84 -23 -192q-29 -129 -82 -230.5t-122.5 -170t-148.5 -104.5t-159 -36q-129 0 -210 94.5t-81 276.5zM330 348q0 -78 18.5 -129t46 -82t57 -43t52.5 -12 q37 0 88 22.5t103.5 74.5t97.5 136t69 205q10 51 15.5 95t5.5 81q0 70 -15.5 118t-41 78t-58.5 43t-66 13q-51 0 -103 -20.5t-98 -69.5t-86 -133t-67 -213q-10 -47 -14 -88t-4 -76zM446 1180q-2 0 14.5 30.5t48.5 67.5t78 67.5t101 30.5q43 0 68.5 -18.5t47 -41t43 -41 t56.5 -18.5q23 0 42.5 19.5t33.5 44.5q16 29 29 65l114 -36q-25 -59 -61 -107q-31 -41 -76 -73.5t-102 -32.5q-51 0 -78 18.5t-45.5 40t-39 39.5t-57.5 18q-23 0 -43 -21.5t-36 -45.5q-20 -29 -39 -66z" />
<glyph unicode="&#xf6;" d="M190 340q0 45 5.5 94t17.5 105q29 139 83 239.5t122.5 165t146.5 95t158 30.5q137 0 215 -96t78 -271q0 -84 -23 -192q-29 -129 -82 -230.5t-122.5 -170t-148.5 -104.5t-159 -36q-129 0 -210 94.5t-81 276.5zM330 348q0 -78 18.5 -129t46 -82t57 -43t52.5 -12 q37 0 88 22.5t103.5 74.5t97.5 136t69 205q10 51 15.5 95t5.5 81q0 70 -15.5 118t-41 78t-58.5 43t-66 13q-51 0 -103 -20.5t-98 -69.5t-86 -133t-67 -213q-10 -47 -14 -88t-4 -76zM481 1257q10 53 49 91t84 38q43 0 66.5 -38t13.5 -91t-50 -90t-83 -37q-45 0 -67.5 37 t-12.5 90zM852 1257q10 53 49 91t84 38q43 0 66.5 -38t13.5 -91t-50 -90t-83 -37q-45 0 -67.5 37t-12.5 90z" />
<glyph unicode="&#xf7;" horiz-adv-x="1159" d="M31 688v90h1099v-90h-1099zM487 416q0 35 28 59.5t67 24.5t65.5 -24.5t26.5 -59.5t-26.5 -60.5t-65.5 -25.5t-67 25.5t-28 60.5zM487 1047q0 35 28 60.5t67 25.5t65.5 -25.5t26.5 -60.5t-26.5 -59.5t-65.5 -24.5t-67 24.5t-28 59.5z" />
<glyph unicode="&#xf8;" d="M152 18l96 123h2q-35 86 -35 195q0 86 23 192q29 137 80 240.5t116.5 172.5t143 102.5t159.5 33.5q53 0 99.5 -15t81.5 -42l63 86l100 -66l-86 -114h-2q35 -78 35 -197q0 -47 -5 -97t-17 -104q-29 -139 -80.5 -242.5t-117 -171t-143 -101t-161.5 -33.5q-117 0 -182 59 l-64 -84zM373 307l446 586h2q-42 55 -110 55q-98 0 -185.5 -104.5t-132.5 -315.5q-27 -125 -20 -221zM416 168q42 -59 116 -59q100 0 185.5 103t130.5 316q29 131 18 232l-448 -592h-2z" />
<glyph unicode="&#xf9;" d="M209 205q0 57 16 135q8 39 18.5 90t23 109.5t25.5 119t25 117.5q29 135 62 281h129q-31 -154 -59 -287q-12 -57 -24.5 -116.5t-24 -113t-20.5 -98.5t-15 -73q-18 -86 -19 -150q0 -53 19.5 -84t68.5 -33q66 -2 124 29t104 70q53 45 98 102l158 754h63q25 0 45.5 -1t20.5 1 q-16 -80 -35 -166q-16 -74 -37 -169t-41 -194l-111 -528h-129l35 170q-45 -53 -98 -94q-45 -35 -104.5 -63.5t-125.5 -26.5q-100 4 -146 61t-46 158zM566 1292l102 131l332 -215l-76 -94z" />
<glyph unicode="&#xfa;" d="M209 205q0 57 16 135q8 39 18.5 90t23 109.5t25.5 119t25 117.5q29 135 62 281h129q-31 -154 -59 -287q-12 -57 -24.5 -116.5t-24 -113t-20.5 -98.5t-15 -73q-18 -86 -19 -150q0 -53 19.5 -84t68.5 -33q66 -2 124 29t104 70q53 45 98 102l158 754h63q25 0 45.5 -1t20.5 1 q-16 -80 -35 -166q-16 -74 -37 -169t-41 -194l-111 -528h-129l35 170q-45 -53 -98 -94q-45 -35 -104.5 -63.5t-125.5 -26.5q-100 4 -146 61t-46 158zM584 1208l422 215l49 -131l-436 -178z" />
<glyph unicode="&#xfb;" d="M209 205q0 57 16 135q8 39 18.5 90t23 109.5t25.5 119t25 117.5q29 135 62 281h129q-31 -154 -59 -287q-12 -57 -24.5 -116.5t-24 -113t-20.5 -98.5t-15 -73q-18 -86 -19 -150q0 -53 19.5 -84t68.5 -33q66 -2 124 29t104 70q53 45 98 102l158 754h63q25 0 45.5 -1t20.5 1 q-16 -80 -35 -166q-16 -74 -37 -169t-41 -194l-111 -528h-129l35 170q-45 -53 -98 -94q-45 -35 -104.5 -63.5t-125.5 -26.5q-100 4 -146 61t-46 158zM451 1194l366 211l277 -211l-66 -78l-243 129l-299 -129z" />
<glyph unicode="&#xfc;" d="M209 205q0 57 16 135q8 39 18.5 90t23 109.5t25.5 119t25 117.5q29 135 62 281h129q-31 -154 -59 -287q-12 -57 -24.5 -116.5t-24 -113t-20.5 -98.5t-15 -73q-18 -86 -19 -150q0 -53 19.5 -84t68.5 -33q66 -2 124 29t104 70q53 45 98 102l158 754h63q25 0 45.5 -1t20.5 1 q-16 -80 -35 -166q-16 -74 -37 -169t-41 -194l-111 -528h-129l35 170q-45 -53 -98 -94q-45 -35 -104.5 -63.5t-125.5 -26.5q-100 4 -146 61t-46 158zM440 1257q10 53 49 91t84 38q43 0 66.5 -38t13.5 -91t-50 -90t-83 -37q-45 0 -67.5 37t-12.5 90zM811 1257q10 53 49 91 t84 38q43 0 66.5 -38t13.5 -91t-50 -90t-83 -37q-45 0 -67.5 37t-12.5 90z" />
<glyph unicode="&#xfd;" d="M-59 -371l57 117q16 -8 37 -16q16 -6 36.5 -11.5t43.5 -3.5q25 2 50 17.5t55 50.5t66 92t81 143l-5 44q-6 44 -13 117t-16 166t-18 192q-23 229 -51 520h142q4 -63 10 -131q4 -59 10 -135t12 -154q14 -184 31 -418l434 838h141q-162 -309 -294 -561 q-57 -109 -113.5 -214.5t-103 -192.5t-80 -148.5t-43.5 -79.5q-18 -31 -46 -76t-65 -88t-84 -74t-102 -31q-35 0 -67 5.5t-54 13.5q-27 8 -51 18zM481 1208l422 215l49 -131l-436 -178z" />
<glyph unicode="&#xfe;" d="M223 0l226 1061h151l-49 -230h151q68 0 128.5 -12t105.5 -38.5t70.5 -68.5t25.5 -102q0 -35 -8 -67q-16 -78 -56 -136.5t-94.5 -98.5t-120 -60.5t-135.5 -20.5h-196l-47 -227h-152zM449 350h194q51 0 90 16.5t65.5 43t42 60.5t23.5 71t4 67.5t-25.5 54t-62.5 36 t-106 12.5h-150z" />
<glyph unicode="&#xff;" d="M-59 -371l57 117q16 -8 37 -16q16 -6 36.5 -11.5t43.5 -3.5q25 2 50 17.5t55 50.5t66 92t81 143l-5 44q-6 44 -13 117t-16 166t-18 192q-23 229 -51 520h142q4 -63 10 -131q4 -59 10 -135t12 -154q14 -184 31 -418l434 838h141q-162 -309 -294 -561 q-57 -109 -113.5 -214.5t-103 -192.5t-80 -148.5t-43.5 -79.5q-18 -31 -46 -76t-65 -88t-84 -74t-102 -31q-35 0 -67 5.5t-54 13.5q-27 8 -51 18zM407 1257q10 53 49 91t84 38q43 0 66.5 -38t13.5 -91t-50 -90t-83 -37q-45 0 -67.5 37t-12.5 90zM778 1257q10 53 49 91t84 38 q43 0 66.5 -38t13.5 -91t-50 -90t-83 -37q-45 0 -67.5 37t-12.5 90z" />
<glyph unicode="&#x152;" d="M135 334q0 135 43 344q31 143 76 270t109.5 222.5t150.5 149.5t197 54q63 0 116 -16h447l-25 -123h-307l-98 -455h266l-25 -121h-266l-114 -536h307l-25 -123h-446q-66 -18 -125 -18t-110.5 16t-89.5 56t-59.5 108.5t-21.5 171.5zM289 328q0 -68 12 -111t32.5 -66.5 t48.5 -32.5t60 -9q29 0 58.5 7t60.5 29h-2q55 268 113.5 533.5t113.5 533.5h5q-41 35 -107 35t-118 -39t-93 -111.5t-74.5 -178t-62.5 -240.5q-25 -117 -36 -202t-11 -148z" />
<glyph unicode="&#x153;" horiz-adv-x="1638" d="M190 340q0 45 5.5 94t17.5 105q29 139 83 239.5t122.5 165t146.5 95t158 30.5q102 0 172 -55.5t100 -157.5q43 63 92.5 104t98.5 65t95 33t85 9q55 0 106.5 -15.5t90.5 -50t61.5 -94t22.5 -145.5q0 -100 -37 -248h-16q-17 0 -47.5 1t-72.5 1h-90q-96 0 -201.5 -1 t-185.5 -1q-6 -33 -10 -62.5t-4 -58.5q0 -63 15.5 -117.5t45 -94.5t71.5 -62.5t95 -22.5q66 0 113 9.5t80 21.5q37 12 65 31l15 -119q-33 -18 -76 -31q-37 -10 -90 -19t-123 -9q-47 0 -95 13t-91 40.5t-78 73t-56 108.5q-78 -121 -183 -183.5t-210 -62.5q-129 0 -210 94.5 t-81 276.5zM330 348q0 -78 18.5 -129t46 -82t57 -43t52.5 -12q37 0 88 22.5t103.5 74.5t97.5 136t69 205q10 51 15.5 95t5.5 81q0 70 -15.5 118t-41 78t-58.5 43t-66 13q-51 0 -103 -20.5t-98 -69.5t-86 -133t-67 -213q-10 -47 -14 -88t-4 -76zM1028 633h229h84t73 1t42 1 h31q4 14 8 35q4 16 6 38.5t2 47.5q0 33 -6 67.5t-23.5 62t-48 45t-79.5 17.5q-41 0 -77 -13t-67 -35.5t-55.5 -51.5t-42.5 -57q-45 -70 -76 -158z" />
<glyph unicode="&#x178;" d="M362 1331l154 58l139 -691q106 172 217 345.5t218 345.5l127 -58l-521 -794l-112 -537h-154l113 537zM508 1556q10 53 49 91t84 38q43 0 66.5 -38t13.5 -91t-50 -90t-83 -37q-45 0 -67.5 37t-12.5 90zM879 1556q10 53 49 91t84 38q43 0 66.5 -38t13.5 -91t-50 -90 t-83 -37q-45 0 -67.5 37t-12.5 90z" />
<glyph unicode="&#x2c6;" d="M244 1194l366 211l277 -211l-66 -78l-243 129l-299 -129z" />
<glyph unicode="&#x2dc;" d="M229 1180q-2 0 14.5 30.5t48.5 67.5t78 67.5t101 30.5q43 0 68.5 -18.5t47 -41t43 -41t56.5 -18.5q23 0 42.5 19.5t33.5 44.5q16 29 29 65l114 -36q-25 -59 -61 -107q-31 -41 -76 -73.5t-102 -32.5q-51 0 -78 18.5t-45.5 40t-39 39.5t-57.5 18q-23 0 -43 -21.5t-36 -45.5 q-20 -29 -39 -66z" />
<glyph unicode="&#x2000;" horiz-adv-x="861" />
<glyph unicode="&#x2001;" horiz-adv-x="1722" />
<glyph unicode="&#x2002;" horiz-adv-x="861" />
<glyph unicode="&#x2003;" horiz-adv-x="1722" />
<glyph unicode="&#x2004;" horiz-adv-x="574" />
<glyph unicode="&#x2005;" horiz-adv-x="430" />
<glyph unicode="&#x2006;" horiz-adv-x="287" />
<glyph unicode="&#x2007;" horiz-adv-x="287" />
<glyph unicode="&#x2008;" horiz-adv-x="215" />
<glyph unicode="&#x2009;" horiz-adv-x="344" />
<glyph unicode="&#x200a;" horiz-adv-x="95" />
<glyph unicode="&#x2010;" horiz-adv-x="841" d="M193 465l26 129h481l-26 -129h-481z" />
<glyph unicode="&#x2011;" horiz-adv-x="841" d="M193 465l26 129h481l-26 -129h-481z" />
<glyph unicode="&#x2012;" horiz-adv-x="841" d="M193 465l26 129h481l-26 -129h-481z" />
<glyph unicode="&#x2013;" horiz-adv-x="1107" d="M170 465l27 129h880l-26 -129h-881z" />
<glyph unicode="&#x2014;" horiz-adv-x="1249" d="M-4 465l27 129h1228l-26 -129h-1229z" />
<glyph unicode="&#x2018;" horiz-adv-x="512" d="M109 954l20 105q16 76 66.5 136t103.5 101q63 49 137 84l39 -104q-31 -14 -57 -39q-23 -23 -45.5 -56.5t-32.5 -82.5l-29 -144h-202z" />
<glyph unicode="&#x2019;" horiz-adv-x="512" d="M106 1036q31 14 58 39q23 20 45 54t33 85l28 144h203l-22 -107q-16 -78 -65.5 -136t-102.5 -99q-63 -49 -138 -84z" />
<glyph unicode="&#x201a;" horiz-adv-x="512" d="M59 -23q33 16 62 48q25 27 49.5 70.5t40.5 111.5l20 98h203q-2 -16 -3 -30.5t-5 -28.5q-23 -98 -74 -166t-106 -113q-66 -53 -140 -88z" />
<glyph unicode="&#x201c;" horiz-adv-x="716" d="M18 954l21 105q16 76 66.5 136t103.5 101q63 49 137 84l39 -104q-31 -14 -57 -39q-23 -23 -45.5 -56.5t-32.5 -82.5l-29 -144h-203zM397 954l21 105q16 76 66.5 136t103.5 101q63 49 137 84l39 -104q-31 -14 -55 -39q-23 -23 -45.5 -56.5t-32.5 -82.5l-29 -144h-205z" />
<glyph unicode="&#x201d;" horiz-adv-x="1030" d="M328 1036q31 14 57 39q23 20 45.5 54t32.5 85l29 144h202l-22 -107q-16 -78 -65.5 -136t-102.5 -99q-63 -49 -137 -84zM707 1036q29 14 55 39q23 20 45 54t33 85l9 45t9 48q6 25 12 51h203l-22 -107q-16 -78 -65.5 -136t-102.5 -99q-63 -49 -138 -84z" />
<glyph unicode="&#x201e;" d="M150 -23q33 16 61 48q25 27 49.5 70.5t40.5 111.5l21 98h202q-2 -16 -3 -30.5t-5 -28.5q-23 -98 -74 -166t-106 -113q-66 -53 -139 -88zM530 -23q33 16 62 48q25 27 49.5 70.5t40.5 111.5l20 98h203q-2 -16 -3 -30.5t-5 -30.5q-23 -96 -74 -165t-106 -114 q-66 -53 -139 -86z" />
<glyph unicode="&#x2022;" d="M248 508q0 53 20.5 99t56 81t84 54.5t101.5 19.5q55 0 102 -19.5t83 -54.5t56.5 -81t20.5 -99t-20.5 -99.5t-56.5 -80t-83 -54t-102 -20.5q-53 0 -101.5 20.5t-84 54t-56 80t-20.5 99.5z" />
<glyph unicode="&#x2026;" d="M2 0l61 293h203l-61 -293h-203zM406 0l61 293h205l-62 -293h-204zM813 0l61 293h205l-61 -293h-205z" />
<glyph unicode="&#x202f;" horiz-adv-x="344" />
<glyph unicode="&#x2039;" d="M326 672l635 499l79 -106l-526 -393l358 -398l-124 -106z" />
<glyph unicode="&#x203a;" d="M268 274l527 398l-359 393l125 106l422 -499l-635 -504z" />
<glyph unicode="&#x205f;" horiz-adv-x="430" />
<glyph unicode="&#x20ac;" d="M203 483l24 123h84q4 23 10.5 52.5t12.5 56.5l2 10h-82l25 123h88q33 102 83 197.5t114.5 168t145.5 115.5t177 43q94 0 151.5 -36t91.5 -76q37 -49 58 -111l-148 -78q-12 49 -34 86q-20 33 -55.5 60.5t-90.5 27.5q-98 0 -187 -105.5t-149 -291.5h437l-25 -123h-440 q-2 -10 -6.5 -25.5t-7.5 -34t-6 -35t-5 -24.5h438l-24 -123h-430q-4 -27 -4 -52v-50q0 -59 8 -109.5t27.5 -87.5t52 -57.5t79.5 -20.5q53 0 102.5 29t88.5 64q45 41 86 94l111 -86q-51 -63 -117 -115q-55 -43 -131 -77.5t-168 -34.5q-135 0 -216 100t-81 313q0 23 1 45.5 t3 44.5h-94z" />
<glyph unicode="&#x2122;" horiz-adv-x="1411" d="M205 1294l16 80h484l-17 -80h-190l-105 -493h-98l104 493h-194zM637 801l121 573h153l72 -407l248 407h151l-120 -573h-99l99 471q-70 -119 -140.5 -235.5t-140.5 -235.5h-70l-75 473l-101 -473h-98z" />
<glyph unicode="&#x25fc;" horiz-adv-x="1054" d="M0 0v1055h1055v-1055h-1055z" />
<glyph unicode="&#xfb01;" horiz-adv-x="1183" d="M231 930l27 125h221q18 82 39 153.5t55.5 122.5t88 80t133.5 27q35 -2 72.5 -8.5t66.5 -14.5q35 -8 65 -20l-53 -111q-25 10 -51 19q-23 8 -51.5 14t-57.5 6q-43 0 -71.5 -18.5t-49 -53t-34 -85t-25.5 -111.5h596l-221 -1055h-127l193 930h-467l-197 -930h-127l197 930 h-222zM1106 1337q10 41 46 71t77 30t64.5 -30t13.5 -71q-8 -41 -44 -70.5t-77 -29.5t-64.5 29.5t-15.5 70.5z" />
<glyph unicode="&#xfb02;" horiz-adv-x="1241" d="M231 930l27 125h221q18 82 39 153.5t55.5 122.5t88 80t133.5 27q35 -2 72.5 -8.5t66.5 -14.5q35 -8 65 -20l-53 -111q-25 10 -51 19q-23 8 -51.5 14t-57.5 6q-43 0 -71.5 -18.5t-49 -53t-34 -85t-25.5 -111.5h291l-27 -125h-290l-197 -930h-127l197 930h-222zM918 152 q0 39 8 73q6 31 20.5 97.5t32.5 155.5t40.5 192.5l45 207t43 200t37 170t25.5 118.5l10 45h129q-66 -307 -119 -555q-23 -106 -45.5 -210.5t-41 -191.5t-31.5 -147.5t-17 -79.5q-12 -57 2 -89t53 -32q29 0 59 15q6 -25 10.5 -43.5t8.5 -32.5q4 -16 8 -27q-18 -10 -41 -18 q-18 -8 -45 -13t-57 -5q-53 0 -94 43t-41 127z" />
</font>
</defs>
</svg>
