<?xml version="1.0" standalone="no"?>
<!DOCTYPE svg PUBLIC "-//W3C//DTD SVG 1.1//EN" "http://www.w3.org/Graphics/SVG/1.1/DTD/svg11.dtd" >
<svg xmlns="http://www.w3.org/2000/svg">
<metadata></metadata>
<defs>
<font id="theacademy_regularregular" horiz-adv-x="1019" >
<font-face units-per-em="2048" ascent="1434" descent="-614" />
<missing-glyph horiz-adv-x="534" />
<glyph horiz-adv-x="0" />
<glyph horiz-adv-x="682" />
<glyph unicode=" "  horiz-adv-x="534" />
<glyph unicode="&#x09;" horiz-adv-x="534" />
<glyph unicode="&#xa0;" horiz-adv-x="534" />
<glyph unicode="!" horiz-adv-x="530" d="M170 1358h223l-41 -912h-147zM180 0v301h203v-301h-203z" />
<glyph unicode="&#x22;" horiz-adv-x="720" d="M92 1124v252h203v-252l-55 -250h-95zM410 1124v252h202v-252l-55 -250h-94z" />
<glyph unicode="#" horiz-adv-x="1165" d="M33 463l16 88h275l55 319h-273l17 91h272l123 675h107l-123 -675h262l125 675h106l-123 -675h275l-19 -91h-272l-57 -319h272l-16 -88h-273l-120 -660h-109l121 660h-260l-119 -660h-109l121 660h-274zM428 551h262l58 319h-263z" />
<glyph unicode="$" d="M131 348l119 84q16 -35 41 -65q23 -27 56.5 -52.5t82.5 -38.5v369h6q-119 33 -193.5 99.5t-74.5 187.5q0 57 23.5 104t61.5 81t86 55.5t97 29.5h-6v172h154v-172h-6q72 -12 127 -40.5t90 -57.5q41 -35 71 -76l-104 -88q-18 31 -43 57q-23 23 -55.5 45.5t-79.5 34.5v-338 h-6q66 -16 123 -38.5t100 -57.5t67.5 -85t24.5 -120q0 -66 -24.5 -116t-66.5 -86.5t-100.5 -58t-126.5 -30.5h9v-167h-154v167h6q-84 12 -141 45t-94 68q-43 39 -70 88zM328 926q0 -43 18.5 -79t83.5 -65v295q-33 -10 -53.5 -27.5t-30.5 -39t-14 -44t-4 -40.5zM584 272 q49 8 78.5 26.5t46 41t21.5 49t5 51.5q0 59 -40 101.5t-111 66.5v-336z" />
<glyph unicode="%" d="M61 47l672 1180q-12 -4 -37.5 -10.5t-64.5 -6.5q-45 0 -78 13q6 -23 10 -49.5t4 -55.5q0 -61 -18.5 -109t-51 -80t-74.5 -48.5t-91 -16.5q-98 0 -163 65.5t-65 188.5t64.5 189.5t163.5 66.5q31 0 60.5 -6t53.5 -20h-2q39 -14 94.5 -26.5t129.5 -12.5q53 0 91 10t66 22 q31 14 56 33l80 -45l-766 -1352zM244 1118q0 -72 24.5 -112.5t65.5 -40.5t67.5 38.5t26.5 114.5q0 82 -26.5 118t-67.5 36t-65.5 -40t-24.5 -114zM451 233q0 123 64.5 189.5t162.5 66.5q49 0 91 -15t75 -46t51 -79t18 -116q0 -61 -18 -109t-51 -80t-75 -48t-91 -16 q-98 0 -162.5 65.5t-64.5 187.5zM590 233q0 -72 24.5 -112.5t65.5 -40.5t67.5 39t26.5 114q0 82 -26.5 118t-67.5 36t-65.5 -40t-24.5 -114z" />
<glyph unicode="&#x26;" d="M131 274q0 94 52.5 172t144.5 136h-2q-39 39 -68 86q-25 39 -45 90t-20 108q0 49 15 98.5t49 89.5t85 64.5t123 24.5q61 0 112.5 -22.5t88 -60.5t57 -88.5t20.5 -105.5q0 -49 -14 -88t-34.5 -69.5t-43 -51t-37.5 -32.5l-8 -7q-8 -6 -22.5 -17t-30.5 -21q-18 -12 -37 -27 h2q49 -70 97.5 -134.5t97.5 -133.5q12 20 32.5 73.5t20.5 128.5l149 -30q-4 -35 -14 -74t-23.5 -78t-33 -75.5t-41.5 -67.5q20 -29 41.5 -58.5t42.5 -58.5l-113 -80l-72 96q-10 -6 -30.5 -20t-52 -27.5t-72.5 -23.5t-88 -10q-80 0 -140.5 28.5t-102.5 71.5t-63.5 95 t-21.5 99zM289 291q0 -53 19.5 -89t47 -56.5t58 -28.5t53.5 -8q31 0 74 15t84 52l-222 305q-6 -4 -24.5 -18t-39 -39t-35.5 -57.5t-15 -75.5zM338 874q0 -41 15.5 -79.5t35.5 -69.5q23 -37 51 -68q10 6 37 22.5t53.5 43.5t47 60.5t20.5 76.5q0 74 -37 114t-102 40 q-16 0 -37 -6.5t-39 -21.5t-31.5 -42t-13.5 -70z" />
<glyph unicode="'" horiz-adv-x="374" d="M100 1124v252h203v-252l-55 -250h-92z" />
<glyph unicode="(" horiz-adv-x="716" d="M164 696q0 184 50 322.5t112 232.5q70 111 161 189l86 -84q-72 -63 -124 -160q-47 -82 -86 -205t-39 -293q0 -188 38.5 -321t86.5 -219q53 -100 124 -164l-86 -86q-92 78 -161 190q-61 98 -111.5 246t-50.5 352z" />
<glyph unicode=")" horiz-adv-x="716" d="M152 -10q70 63 124 164q47 86 86 219t39 321q0 170 -38.5 293t-86.5 205q-55 96 -124 160l79 80h11q88 -78 157 -187q59 -94 109.5 -231t50.5 -322q0 -102 -14.5 -189t-37 -162t-51 -136.5t-59.5 -110.5q-72 -113 -161 -190z" />
<glyph unicode="*" d="M178 965v184l211 -23q-33 37 -67.5 77t-65.5 77l152 106l104 -186q25 47 52.5 94t51.5 92l150 -106l-133 -154l213 23v-184l-213 20q33 -35 67.5 -76t65.5 -75l-150 -109l-104 188q-27 -45 -53.5 -94t-50.5 -92l-152 107l133 151z" />
<glyph unicode="+" horiz-adv-x="1148" d="M27 688v90h497v496h105v-496h497v-90h-497v-498h-105v498h-497z" />
<glyph unicode="," horiz-adv-x="512" d="M154 -27q27 16 49 47q18 27 34.5 71t16.5 112v98h205q2 -16 3 -30.5t1 -28.5q0 -98 -38 -166t-83 -113q-53 -53 -121 -88z" />
<glyph unicode="-" d="M272 465v129h482v-129h-482z" />
<glyph unicode="." horiz-adv-x="407" d="M141 0v301h203v-301h-203z" />
<glyph unicode="/" d="M145 -55l605 1575h114l-602 -1575h-117z" />
<glyph unicode="0" d="M121 522v113q0 39 1 81t1 83q0 160 22.5 269.5t69.5 177t120 98t173 30.5t173 -30.5t121 -98t70.5 -177.5t22.5 -269q0 -41 1 -83t1 -81v-113q0 -92 -14.5 -188t-55.5 -175t-113.5 -129t-189.5 -50h-30q-117 0 -190 50t-113.5 129t-55 175t-14.5 188zM283 553 q0 -123 12 -207t39.5 -137t71 -76.5t102.5 -23.5q61 0 104 23.5t71 76.5t40 137t12 207v348q0 104 -20.5 171t-53 106t-73.5 53t-80 14t-79 -14t-72.5 -53t-53 -105.5t-20.5 -171.5v-348z" />
<glyph unicode="1" d="M117 0v121h332v1067q-59 -23 -123 -48.5t-123 -47.5l-45 127l444 167v-1265q74 0 150.5 -1t150.5 -1v-119h-786z" />
<glyph unicode="2" d="M123 0v123q135 172 248 315q47 61 95 123t89 115t71.5 94t43.5 59q47 72 58 117t11 80q0 117 -59 169t-139 52q-41 0 -82 -12t-78 -44t-65.5 -86t-43.5 -138l-143 20h-6q10 74 37.5 144.5t76 125t121 87t172.5 32.5t170 -31.5t114 -82t63.5 -111.5t19.5 -121 q0 -68 -30.5 -146.5t-112.5 -185.5q-20 -27 -51 -65.5t-66 -84.5t-74 -96.5t-76 -99.5l-186 -239q147 2 297 5t297 5v-123h-772z" />
<glyph unicode="3" d="M119 1233v123h770v-121l-397 -406q16 2 29.5 3.5t29.5 1.5q68 0 132.5 -19.5t113.5 -61.5t78.5 -108.5t29.5 -159.5q0 -104 -54 -199.5t-153.5 -166t-242 -109.5t-318.5 -30v129q123 0 229.5 17t187.5 61t131 120t60 193q6 72 -18.5 115.5t-66.5 68.5t-95 34t-104 9 q-35 0 -65.5 -3t-55.5 -7q-29 -4 -55 -8v110l420 414h-586z" />
<glyph unicode="4" d="M119 340l200 1046l154 -40l-176 -883h352v690h154v-690h112v-123h-112v-340h-154v340h-530z" />
<glyph unicode="5" d="M123 -20v129q23 -2 46.5 -2.5t41.5 -0.5q145 0 244.5 33t160 87.5t87 125t26.5 148.5q0 68 -22.5 112.5t-56.5 71.5t-76 37t-78 10q-37 0 -78 -13t-76 -30q-41 -18 -80 -41l-98 29v680h713v-123h-560v-424q20 10 70.5 30.5t122.5 20.5q61 0 128 -20.5t122 -63.5 t91 -111.5t36 -164.5q0 -92 -38 -185.5t-121 -168t-215 -122t-318 -47.5q-16 0 -36 1.5t-36 1.5z" />
<glyph unicode="6" d="M123 631q0 152 18.5 286t63.5 235t121.5 160.5t193.5 59.5q86 0 146.5 -19.5t101.5 -41.5q47 -27 80 -60l-84 -121q-31 33 -66 58q-31 23 -69.5 40t-85.5 17t-94.5 -22.5t-84 -76.5t-59 -143.5t-22.5 -222.5v-10q35 29 102.5 60.5t159.5 31.5q72 0 137.5 -26.5 t114.5 -78.5t77.5 -128t28.5 -174t-23.5 -184.5t-71.5 -151t-124 -102t-180 -37.5t-177 49t-118 137t-65.5 207t-20.5 258zM283 604h2q0 -104 8 -194.5t32.5 -158t69.5 -105t119 -37.5q63 0 106.5 26.5t71 69.5t39.5 99t12 116q0 49 -7 104.5t-29.5 101.5t-65.5 76.5 t-117 30.5q-41 0 -77.5 -14t-67.5 -33.5t-56.5 -42t-39.5 -39.5z" />
<glyph unicode="7" d="M176 1233v123h778l-618 -1389l-135 62l540 1204h-565z" />
<glyph unicode="8" d="M115 344q0 86 43 151.5t96 110.5q61 53 139 88q-2 2 -39 25.5t-80 66.5t-78.5 103.5t-35.5 138.5t30.5 142.5t79.5 109.5t112.5 69.5t129.5 24.5q74 0 137.5 -24.5t111.5 -69.5t75.5 -108.5t27.5 -143.5q0 -78 -35.5 -139.5t-78.5 -104.5q-51 -51 -115 -90q8 -4 52 -24.5 t93 -62.5t89 -106.5t40 -156.5q0 -96 -37.5 -165.5t-97 -114t-131.5 -64.5t-141 -20q-70 0 -138.5 25.5t-124 72.5t-90 114.5t-34.5 151.5zM274 328q0 -59 21.5 -101.5t56.5 -68t77 -37.5t83 -12q43 0 85 13t76 42t55.5 72t21.5 102q0 66 -37 117t-82 90q-53 43 -117 80 l-37 -23q-33 -18 -68.5 -41.5t-65.5 -55.5t-49.5 -75t-19.5 -102zM319 1028q0 -55 30 -103t67 -83q41 -41 96 -76q6 4 38 24.5t66.5 54.5t62.5 80t28 103q0 59 -18.5 100t-47.5 68t-62.5 38t-66.5 11q-35 0 -68.5 -11t-61.5 -38t-45.5 -68t-17.5 -100z" />
<glyph unicode="9" d="M125 905q0 98 23.5 184.5t71.5 151t123 102t179 37.5t177 -49t118 -137t65.5 -207t20.5 -258q0 -152 -17.5 -286t-62.5 -235.5t-121.5 -160.5t-195.5 -59q-86 0 -146.5 18.5t-101.5 40.5q-47 27 -80 62l84 120q27 -33 64 -57q29 -23 69.5 -40t87.5 -17t94.5 22.5t84 75.5 t59 143t22.5 224v10q-35 -29 -101.5 -59.5t-160.5 -30.5q-72 0 -136 26.5t-113.5 78.5t-78 127t-28.5 173zM283 940q0 -49 7 -104.5t29.5 -101.5t65.5 -76.5t117 -30.5q41 0 77.5 13t68.5 33.5t56.5 43t40.5 39.5h-2q-2 104 -10 194t-32.5 158t-69.5 105.5t-119 37.5 q-63 0 -106.5 -26.5t-71 -69.5t-39.5 -99.5t-12 -115.5z" />
<glyph unicode=":" horiz-adv-x="552" d="M186 0v301h203v-301h-203zM186 578v301h203v-301h-203z" />
<glyph unicode=";" horiz-adv-x="552" d="M102 -27q29 16 52 47q18 27 34.5 71t16.5 112v98h203q2 -16 3 -30.5t1 -28.5q0 -98 -38 -166t-83 -113q-53 -53 -121 -88zM205 578v301h203v-301h-203z" />
<glyph unicode="&#x3c;" d="M96 731l781 739l53 -71l-711 -668l711 -668l-56 -69z" />
<glyph unicode="=" horiz-adv-x="1132" d="M14 551v90h1100v-90h-1100zM14 823v90h1100v-90h-1100z" />
<glyph unicode="&#x3e;" d="M96 63l713 668q-178 166 -356.5 334t-356.5 334l58 71l776 -739l-776 -737z" />
<glyph unicode="?" d="M131 995q16 106 66 191q20 35 49.5 69.5t70.5 61t93.5 43t119.5 16.5q59 0 123 -18.5t117 -58t87 -106.5t34 -161q0 -53 -15.5 -99t-38 -85t-51 -71t-55.5 -54q-49 -43 -78.5 -71.5t-45 -57.5t-19.5 -63.5t-4 -88.5h-158q0 47 1 85t11.5 73t34 70t68.5 75l37 33 q68 59 110.5 113.5t42.5 136.5q0 39 -11 79t-34.5 70.5t-61.5 50t-89 19.5q-53 0 -96.5 -22.5t-76 -62.5t-53 -92t-28.5 -112l-144 37h-6zM401 0v301h205v-301h-205z" />
<glyph unicode="@" horiz-adv-x="1466" d="M154 569q0 98 20 207q33 164 98.5 278.5t149.5 185.5t178 102.5t184 31.5q141 0 241.5 -55t164 -140t93.5 -187.5t30 -196.5q0 -98 -29 -181.5t-74 -143.5t-102 -93t-113 -33q-49 0 -80.5 16.5t-50.5 36.5q-23 23 -30 56q-6 -14 -23.5 -33t-44.5 -36t-58.5 -28.5 t-66.5 -11.5q-55 0 -92 17.5t-59.5 45t-31.5 63.5t-9 73q0 35 6 70.5t16 64.5q37 113 91 173t122 87t146.5 30t166.5 3q-14 -90 -24 -168q-10 -66 -20.5 -131.5t-14.5 -93.5q-6 -55 13.5 -80t45.5 -25q18 0 49 19.5t59 59.5t48.5 101.5t20.5 143.5t-26 166t-75 151.5 t-121.5 110.5t-165.5 43q-86 0 -156.5 -33t-125.5 -87t-95 -126t-66 -149.5t-38 -156.5t-12 -149q0 -115 32.5 -200.5t88 -143t130 -86t158.5 -28.5q92 0 173 25.5t143 55.5q72 37 133 82l51 -133q-70 -45 -151 -80q-70 -31 -162 -55t-197 -24q-90 0 -186 32.5t-174 103 t-128 183.5t-50 270zM590 537q0 -82 51 -82q47 0 79 33.5t53.5 87t34.5 118t26 125.5l8 43q-51 -6 -85 -18.5t-58.5 -34t-44 -56t-38.5 -85.5q-16 -39 -21 -74t-5 -57z" />
<glyph unicode="A" horiz-adv-x="907" d="M18 12l342 1346h181l344 -1346l-152 -41l-104 445h-357q-27 -109 -52 -222.5t-52 -222.5zM301 537h299l-149 637z" />
<glyph unicode="B" horiz-adv-x="993" d="M94 0v123h111v1112h-111v123h365q82 0 149.5 -23.5t116.5 -67.5t75.5 -107.5t26.5 -143.5q0 -74 -21.5 -123t-48 -80t-50 -44t-29.5 -15q8 -4 43 -20.5t72.5 -56.5t67.5 -105.5t30 -163.5q0 -109 -31 -186t-80 -126t-111.5 -72.5t-127.5 -23.5h-447zM356 123h179 q86 0 141 63.5t55 204.5t-55 214t-168 73h-152v-555zM356 801h127q25 0 57.5 8t60.5 30.5t47.5 62.5t19.5 106q0 63 -15.5 106t-42 69.5t-59.5 38t-68 11.5q-29 0 -52 1t-40 1h-35v-434z" />
<glyph unicode="C" horiz-adv-x="966" d="M102 717q0 127 22.5 245.5t72 211t128 147.5t191.5 55q94 0 160.5 -35.5t107.5 -76.5q49 -51 80 -113l-131 -76q-23 49 -53 86q-29 33 -69 59.5t-95 26.5q-113 0 -183.5 -128t-70.5 -378q0 -125 9.5 -238.5t37 -200.5t76.5 -139t131 -52q53 0 97 28.5t77 63.5 q37 41 66 94l127 -88q-39 -63 -92 -115q-47 -43 -115 -77.5t-160 -34.5q-90 0 -166 38.5t-131 125.5t-86 227.5t-31 343.5z" />
<glyph unicode="D" horiz-adv-x="1005" d="M94 0v123h111v1112h-111v123h367q131 0 216 -43t135 -128t70.5 -213t20.5 -296q0 -207 -28.5 -339t-85 -207t-141.5 -103.5t-195 -28.5h-359zM358 123h103q78 0 131 24.5t87 88t49 171t15 271.5t-17 271.5t-48 171t-74 89t-94 25.5h-152v-1112z" />
<glyph unicode="E" horiz-adv-x="958" d="M184 0v1358h670v-123h-518v-457h434v-123h-434v-532h518v-123h-670z" />
<glyph unicode="F" horiz-adv-x="937" d="M184 0v1358h670v-123h-518v-457h434v-123h-434v-655h-152z" />
<glyph unicode="G" horiz-adv-x="1028" d="M102 676q0 131 20.5 257t69 224t125 158.5t191.5 60.5q86 0 151.5 -35.5t110.5 -76.5q53 -51 90 -113l-131 -80q-23 49 -57 88q-29 33 -72 60.5t-100 27.5q-117 0 -177.5 -154.5t-60.5 -428.5q0 -150 18.5 -255.5t52.5 -171t83 -96t108 -30.5q41 0 73 9t53.5 21.5 t31.5 21.5l10 9v410h-254v123h408v-603q-37 -35 -88 -61q-43 -23 -103.5 -41t-132.5 -18q-119 0 -198.5 59t-129 156.5t-71 222.5t-21.5 256z" />
<glyph unicode="H" horiz-adv-x="1120" d="M205 0v1358h151v-578h408v578h151v-1358h-151v659h-408v-659h-151z" />
<glyph unicode="I" horiz-adv-x="686" d="M84 0v123h182v1112h-182v123h520v-123h-184v-1112h184v-123h-520z" />
<glyph unicode="J" horiz-adv-x="921" d="M51 356v136h152v-136q0 -51 11 -96t33.5 -77.5t59.5 -52t90 -19.5q51 0 87 23.5t57.5 60t32 84t10.5 96.5v983h153v-983q0 -115 -36.5 -190.5t-91 -121t-115 -63.5t-107.5 -18q-88 0 -151.5 34.5t-104.5 90t-60.5 122t-19.5 127.5z" />
<glyph unicode="K" horiz-adv-x="964" d="M184 0v1346h152v-553h29l342 544l120 -73l-335 -523l442 -698l-125 -74l-434 699h-39v-668h-152z" />
<glyph unicode="L" horiz-adv-x="913" d="M184 0v1358h154v-1235h555v-123h-709z" />
<glyph unicode="M" horiz-adv-x="1191" d="M182 0l41 1358h185l186 -567l188 567h187l41 -1358h-160l-23 1122q-57 -172 -117.5 -350t-115.5 -346l-227 684l-27 -1110h-158z" />
<glyph unicode="N" horiz-adv-x="1093" d="M182 0v1358h189l387 -1114q0 287 -2 557t-2 557h153v-1358h-188l-385 1122q0 -283 1 -561t1 -561h-154z" />
<glyph unicode="O" horiz-adv-x="974" d="M102 680q0 143 18.5 267t63.5 216t119 144.5t184 52.5q115 0 190 -52.5t118 -144.5t60 -216t17 -267q0 -209 -30.5 -344t-82.5 -214t-122 -109.5t-150 -30.5t-149.5 30.5t-121.5 108.5t-83 214t-31 345zM262 680q0 -184 17.5 -296t48 -173t71.5 -81.5t88 -20.5t89 19 t73 79.5t48.5 173.5t17.5 299q0 147 -10.5 251.5t-36 172t-69.5 98.5t-112 31q-131 0 -178 -143.5t-47 -409.5z" />
<glyph unicode="P" horiz-adv-x="966" d="M182 0v1358h303q78 0 147.5 -20.5t122 -63.5t83 -112.5t30.5 -168.5q0 -98 -26.5 -173t-72.5 -124t-107.5 -74.5t-131.5 -25.5h-194v-596h-154zM336 719h194q51 0 86 23.5t55.5 61.5t29 87t8.5 102q0 51 -10.5 96.5t-36 77t-69.5 50t-110 18.5h-147v-516z" />
<glyph unicode="Q" horiz-adv-x="995" d="M115 680q0 143 18.5 270t62.5 221.5t117.5 149.5t184.5 55q115 0 189.5 -55t117.5 -149.5t60.5 -221.5t17.5 -270q0 -190 -24.5 -317t-67.5 -207h-3l93 -109l-113 -92l-72 86q-41 -33 -92 -46t-106 -13q-80 0 -149.5 30.5t-122 108.5t-82 214t-29.5 345zM272 680 q0 -184 17.5 -296t48.5 -173t72 -81.5t88 -20.5q61 0 110 36l-180 215l113 95l143 -172q18 66 29.5 163t11.5 234q0 147 -10 254.5t-36 177.5t-70 103.5t-111 33.5q-66 0 -109 -39t-69.5 -112.5t-37 -179t-10.5 -238.5z" />
<glyph unicode="R" horiz-adv-x="985" d="M182 0v1358h303q78 0 147.5 -20.5t122 -63.5t83 -112.5t30.5 -168.5q0 -158 -65.5 -253t-167.5 -128h6l277 -577l-138 -66l-303 627h-141v-596h-154zM336 719h194q51 0 86 23.5t55.5 61.5t30 87t9.5 102q0 51 -11.5 96.5t-37 77t-69.5 50t-110 18.5h-147v-516z" />
<glyph unicode="S" horiz-adv-x="944" d="M100 356l154 21l4 -29q8 -43 18.5 -85t32 -75.5t57 -55t95.5 -21.5q96 0 144 63.5t48 177.5q0 68 -15 113t-40 75.5t-57.5 51t-67.5 41.5l-47 26l-33 19q-41 25 -86 50.5t-83 62t-62.5 89t-24.5 126.5q0 82 25.5 146.5t69.5 109.5t103.5 67.5t125.5 22.5q53 0 95 -13.5 t75 -35t57.5 -49t42.5 -56.5q41 -68 57 -154l-149 -22q-12 55 -35 100q-20 37 -54 69t-89 32q-43 0 -76 -17.5t-53.5 -48.5t-30.5 -69.5t-10 -81.5q0 -45 13 -74t39 -53.5t66 -49t93 -59.5l35 -22q53 -33 102 -68t86 -81t59.5 -108.5t22.5 -150.5q0 -96 -31 -165t-80 -112 t-112.5 -62t-126.5 -19q-66 0 -124.5 15t-106.5 56t-80.5 115t-45.5 188z" />
<glyph unicode="T" horiz-adv-x="763" d="M14 1235v123h734v-123h-289v-1235h-152v1235h-293z" />
<glyph unicode="U" horiz-adv-x="1048" d="M182 324v1034h154v-1002q0 -47 7 -92t27.5 -78.5t56.5 -54t95 -20.5t96 22.5t58.5 57t29 78.5t7.5 87v1002h151v-1028q0 -78 -25.5 -142.5t-70.5 -110.5t-108.5 -70.5t-137.5 -24.5t-136 23.5t-107.5 67.5t-71 107.5t-25.5 143.5z" />
<glyph unicode="V" horiz-adv-x="958" d="M63 1303l156 32l258 -964l264 968l156 -32l-381 -1336h-76z" />
<glyph unicode="W" horiz-adv-x="1062" d="M106 1305l152 30l57 -948l174 692h84l175 -688q8 123 16 240t15 232.5t15.5 232t14.5 239.5l152 -30l-134 -1332h-92l-203 815l-206 -815h-90z" />
<glyph unicode="X" horiz-adv-x="974" d="M57 31l349 712q-35 70 -67 134.5t-63.5 127t-63.5 126t-67 135.5l140 69l202 -428q27 61 52.5 113.5t51 103t50.5 102.5t53 113l142 -69l-269 -527q86 -178 174 -356t174 -356l-135 -64l-293 611l-292 -611z" />
<glyph unicode="Y" horiz-adv-x="901" d="M45 1280l141 57l267 -653q70 172 134 329.5t134 329.5l139 -57l-332 -749v-537h-153v537z" />
<glyph unicode="Z" horiz-adv-x="968" d="M47 0l576 1235h-521v123h742l-574 -1235h596v-123h-819z" />
<glyph unicode="[" horiz-adv-x="716" d="M45 -78v1454h553v-123h-401v-1208h401v-123h-553z" />
<glyph unicode="\" d="M154 1520h112l602 -1575h-112z" />
<glyph unicode="]" horiz-adv-x="716" d="M125 45h401v1208h-401v123h555v-1454h-555v123z" />
<glyph unicode="^" d="M119 725l334 657h120l328 -657h-115l-272 555l-281 -555h-114z" />
<glyph unicode="_" horiz-adv-x="1228" d="M0 -141h1229v-80h-1229v80z" />
<glyph unicode="`" d="M301 1292l76 131l377 -215l-56 -94z" />
<glyph unicode="a" horiz-adv-x="933" d="M80 270q0 37 13 85t47 94.5t88.5 83t138.5 51.5q31 4 73.5 11t83.5 11q47 6 94 10q-2 12 -2 25v47q0 92 -17 143.5t-46 77t-64.5 31.5t-70.5 6t-80 -16.5t-86 -34.5q-47 -23 -96 -49q-14 31 -23 55q-8 23 -15 40t-5 17l29 18q28 17 74 37.5t104.5 38t119.5 17.5 t116.5 -17.5t98.5 -57.5t69 -106.5t26 -166.5v-173v-128t-1 -94t-1 -72q-1 -21 -1 -40q0 -38 3 -70q4 -46 8 -78q6 -37 10 -66h-129l-6 43q-4 23 -6 53q-1 15 -1 34.5t1 41.5q0 2 -18.5 -28.5t-55.5 -68.5t-94.5 -70t-134.5 -32q-78 0 -126 33t-74 79t-35 97t-9 88zM217 279 v-16q0 -73 35 -113q39 -44 106 -44q33 0 73 15.5t77 41t66.5 62.5t43.5 80q-2 2 -2 33v65v64q0 15 2 29q-45 -2 -83 -7q-35 -4 -72 -9t-62 -9q-25 -6 -56.5 -19.5t-59 -36t-47 -57t-21.5 -79.5z" />
<glyph unicode="b" horiz-adv-x="987" d="M164 0v1411h129v-504q14 23 37.5 50.5t57.5 52t78 41t99 16.5q80 0 139.5 -39t99.5 -108.5t60.5 -167t20.5 -215.5q0 -119 -22.5 -219.5t-65.5 -174t-104.5 -115.5t-139.5 -42q-57 0 -101 17t-76 42t-52.5 52.5t-30.5 49.5v-147h-129zM293 317q14 -27 37.5 -64.5 t54.5 -72.5t70 -59.5t82 -24.5q57 0 98 40t67.5 103.5t39 140.5t12.5 150q0 74 -12.5 148t-37 133t-63.5 96t-94 37q-57 0 -100.5 -23.5t-74 -56.5t-50 -68.5t-29.5 -60.5v-418z" />
<glyph unicode="c" horiz-adv-x="878" d="M104 514q0 170 48.5 277.5t119 168t147.5 82t136 21.5q47 0 86 -9.5t66 -19.5q31 -12 55 -26l-35 -131q-23 18 -47 32q-23 12 -52.5 22.5t-66.5 10.5q-43 0 -98 -16.5t-104.5 -62.5t-83 -128t-33.5 -211t31.5 -213t77.5 -133t98.5 -67.5t93.5 -18.5t74.5 10.5t60.5 22.5 q31 14 57 35l35 -125q-37 -18 -76 -33q-35 -12 -77 -21.5t-85 -9.5q-55 0 -129.5 20.5t-140 80t-112 166t-46.5 276.5z" />
<glyph unicode="d" horiz-adv-x="1011" d="M104 539q0 131 29 231t75 165.5t105.5 99.5t120.5 34t110.5 -25.5t84.5 -56.5q39 -37 69 -82v506h129v-1411h-129l2 166q-27 -53 -63 -92q-33 -35 -84 -62.5t-125 -27.5q-147 0 -235.5 144t-88.5 411zM233 528q0 -78 14.5 -154.5t42 -137t68.5 -98.5t95 -38q53 0 98 32 t80 73q37 47 69 106q-2 123 -2 221v222l-14 30q-14 29 -43 65t-71 65.5t-97 29.5t-99 -36t-76 -94t-48.5 -133t-16.5 -153z" />
<glyph unicode="e" horiz-adv-x="958" d="M82 530q0 160 39 263.5t96 165t124 85t122 23.5q68 0 133.5 -23.5t116.5 -79t81.5 -148.5t30.5 -234v-34t-2 -34h-16t-47 1t-73 1h-89q-96 0 -201.5 -1t-185.5 -1q0 -86 23.5 -162t63.5 -133t95.5 -90t120.5 -33q66 0 112 9.5t74 21.5q35 12 58 31l39 -119 q-35 -18 -78 -31q-39 -10 -92.5 -19t-122.5 -9q-70 0 -144.5 26.5t-136 89t-101.5 169t-40 265.5zM217 633h229h84t73 1t42 1h31l1 23v8q0 22 -4 51q-5 35 -16.5 74.5t-35 74.5t-61.5 58.5t-93 23.5q-41 0 -74 -13t-58.5 -35.5t-44 -51.5t-30.5 -57q-31 -70 -43 -158z" />
<glyph unicode="f" horiz-adv-x="716" d="M35 930v125h221q0 82 9 153.5t36 122.5t76 80q46 27 119 27h10q35 -2 70.5 -8.5t64.5 -14.5q33 -8 64 -20l-31 -111q-27 10 -56 19q-25 8 -54 14t-58 6q-43 0 -67.5 -18.5t-37 -53t-15.5 -85t-3 -111.5h291v-125h-291v-930h-127v930h-221z" />
<glyph unicode="g" horiz-adv-x="993" d="M123 -152q0 53 22.5 94.5t51.5 67.5q32 30 73 53q-35 10 -61 33q-23 18 -42.5 51t-19.5 82t24 85t52 61q33 27 76 47q-47 25 -84 67q-31 37 -56.5 96.5t-25.5 145.5t28.5 149.5t74 104.5t99.5 61.5t105 20.5q41 0 76 -8t57 -19q27 -10 48 -24q8 0 43.5 2t77.5 4t80 4 t52 4v-121l-163 -2q10 -14 18 -37q8 -20 14.5 -54t6.5 -85q0 -57 -24 -122.5t-69 -120t-113 -82.5q-43 -19 -94 -19q-28 0 -59 6q-35 -10 -61 -28q-23 -16 -41.5 -39t-18.5 -56t14.5 -50t36 -24.5t46 -7.5h45.5q41 0 98 2.5t162 6.5h13q94 0 147 -57q57 -62 57 -169 q0 -53 -22.5 -119.5t-75 -125t-136.5 -98.5t-206 -40q-102 0 -166 30t-100 71t-48 85t-12 74zM244 -141q0 -47 20.5 -78t52 -49.5t68.5 -25.5t70 -7q78 0 135 20.5t94 54t54.5 79t17.5 94.5q-2 82 -29 103.5t-80 23.5h-74q-49 0 -101 -2.5t-91 -8.5q-8 -6 -30.5 -21t-46 -40 t-42 -60.5t-18.5 -82.5zM258 721q0 -55 16.5 -99t43 -74t61.5 -45.5t70 -15.5q31 0 61.5 15.5t55 45.5t40 75t15.5 104q0 119 -53.5 174t-125.5 55q-29 0 -61.5 -15t-60 -46t-45 -75t-17.5 -99z" />
<glyph unicode="h" horiz-adv-x="1013" d="M172 0v1409h129v-522q37 53 84 92q41 35 94 63q49 26 110 25h9q131 -4 187.5 -100.5t56.5 -253.5v-90.5t-1 -108.5t-1 -117.5v-117.5v-279h-129v283v115.5t-1 112.5t-1 99v74q0 57 -6.5 106.5t-19.5 84t-37.5 55t-63.5 20.5h-8q-61 0 -110 -28q-52 -30 -89 -68 q-43 -43 -76 -100l2 -754h-65h-64z" />
<glyph unicode="i" horiz-adv-x="559" d="M39 940v117h315v-1057h-127l-4 940h-184zM197 1337q0 41 29.5 71t70.5 30t70.5 -30t29.5 -71t-29.5 -70.5t-70.5 -29.5t-70.5 29.5t-29.5 70.5z" />
<glyph unicode="j" horiz-adv-x="518" d="M-129 -362l23 116q43 -14 81 -22q35 -8 70 -14.5t59 -6.5q33 0 56.5 8.5t38 37t21.5 87t7 156.5v115.5t-1 142.5t-1 156v155q-2 178 -2 371h-184v117h315v-1057q0 -96 -7 -172t-32.5 -129t-75 -82t-135.5 -29q-35 0 -75.5 7.5t-75.5 17.5q-41 10 -82 25zM197 1337 q0 41 29.5 71t70.5 30t70.5 -30t29.5 -71t-29.5 -70.5t-70.5 -29.5t-70.5 29.5t-29.5 70.5z" />
<glyph unicode="k" horiz-adv-x="944" d="M180 0v53v130v185.5t1 220.5t1 235.5v229v203v154.5h129l-2 -821l416 467h164l-402 -441l447 -616h-174l-369 535l-78 -84l-2 -451h-131z" />
<glyph unicode="l" horiz-adv-x="546" d="M184 225v97.5v154.5v191.5t1 207t1 199.5v170v119v45h19q10 0 21.5 1t23.5 1h65q-2 -307 -2 -555v-629q0 -75 36 -105q18 -15 44 -15q25 0 58 14q10 -25 20 -43.5t16 -32.5q8 -16 13 -27q-14 -10 -37 -18q-18 -8 -44 -13t-57 -5t-62.5 15t-57 46t-42 77t-16.5 105z" />
<glyph unicode="m" horiz-adv-x="1570" d="M186 0v1057h129v-170q37 53 84 92q41 35 95 63q50 26 109 25h9q90 -4 144.5 -51t77.5 -131q12 14 41.5 43.5t72.5 60.5t97.5 54.5t115.5 23.5q72 0 116 -28.5t68.5 -76t32.5 -106.5t8 -121v-430q0 -143 3 -305h-127q-2 162 -2 303v387q0 94 -13.5 147.5t-34 79t-42 31.5 t-40.5 6q-53 0 -99 -22.5t-82 -53t-60.5 -60.5t-34.5 -44q0 -16 1 -30.5t1 -30.5v-90.5t-1 -108.5t-1 -117.5v-117.5v-279h-129v283v115.5t-1 112.5t-1 99v74q0 57 -6 106.5t-19.5 84t-38 55t-63.5 20.5h-8q-61 0 -110 -28q-52 -30 -89 -68q-43 -43 -76 -100l2 -754h-129z " />
<glyph unicode="n" horiz-adv-x="1058" d="M184 0v1057h129v-170q37 53 84 92q41 35 95 63q50 26 109 25h9q131 -4 187.5 -100.5t56.5 -253.5v-90.5t-1 -108.5t-1 -117.5v-117.5v-279h-129v283v115.5t-1 112.5t-1 99v74q0 57 -6 106.5t-19.5 84t-38 55t-63.5 20.5h-8q-61 0 -110 -28q-52 -30 -89 -68 q-43 -43 -76 -100l2 -754h-129z" />
<glyph unicode="o" horiz-adv-x="983" d="M102 524q0 139 32 241.5t86 170.5t126 100.5t152 32.5q86 0 156.5 -36t120.5 -105.5t79 -171t29 -230.5t-32 -232.5t-86 -176t-125 -110.5t-151 -38t-149.5 35t-122.5 103.5t-84 173t-31 243.5zM240 512q0 -129 28.5 -212t67.5 -131t81 -67.5t70 -19.5q37 0 84 22.5 t87 74.5t68 136t28 205t-23.5 203t-59.5 132t-81 71.5t-88 21.5q-51 0 -98.5 -20.5t-84 -69.5t-58 -133t-21.5 -213z" />
<glyph unicode="p" horiz-adv-x="1011" d="M184 -412v1469h127v-170q20 49 58 88q31 35 82 62.5t129 27.5q154 0 242.5 -138.5t88.5 -394.5q0 -127 -28.5 -230t-75.5 -175t-107.5 -111t-124.5 -39q-63 0 -111 29t-83 64q-39 39 -68 92v-574h-129zM311 317q23 -59 58 -106q29 -41 71.5 -73t100.5 -32q57 0 101 39 t73.5 100.5t45 136.5t15.5 146q0 72 -13 146t-42 134t-72 98t-102 38t-103.5 -30.5t-73 -67.5t-35.5 -52l-22 -44q-2 -31 -2 -68v-147v-218z" />
<glyph unicode="q" horiz-adv-x="1011" d="M102 528q0 121 26 220.5t72 170t109.5 109.5t141.5 39q63 0 109 -24.5t77 -53.5q37 -35 59 -78v146h129v-1469h-129v584q-23 -53 -59 -94q-33 -35 -85 -64.5t-128 -29.5t-135.5 39.5t-101.5 111.5t-63.5 172.5t-21.5 220.5zM240 530q0 -88 14 -164.5t41 -134t64.5 -90 t82.5 -32.5q61 0 108.5 31.5t80.5 70.5q37 45 65 102v453q-23 49 -57 88q-29 33 -72 60.5t-100 27.5q-51 0 -93 -30.5t-72 -86t-46 -131.5t-16 -164z" />
<glyph unicode="r" horiz-adv-x="802" d="M182 0v1057h129v-236q27 68 66 121q33 47 83 85t120 38q35 0 68.5 -8t62.5 -19q31 -12 59 -26q-4 -12 -8 -23q-10 -23 -19 -49l-24 -74q-23 16 -47 29q-23 10 -48.5 19.5t-52.5 9.5q-63 0 -111 -38t-81 -83q-39 -53 -68 -121v-682h-129z" />
<glyph unicode="s" horiz-adv-x="864" d="M111 795q0 78 34.5 131t88 84.5t115 45t114.5 13.5t97 -7t76 -16.5t40 -13.5l26 -10q-2 0 -6 -19.5t-10 -44.5l-16 -65q-25 16 -58 29q-29 10 -67.5 19t-87.5 9q-98 0 -157.5 -47t-59.5 -123q0 -37 17 -62.5t52 -47t87.5 -41t123.5 -45.5q76 -29 121 -63t69.5 -71.5 t32 -76.5t7.5 -78q0 -53 -19.5 -108.5t-60.5 -102.5t-108.5 -77t-162.5 -30q-63 0 -114.5 8.5t-87.5 18.5q-43 12 -80 29l33 129q33 -18 71 -33q35 -12 79 -21.5t93 -9.5q61 0 104.5 18.5t71 47.5t40 61.5t12.5 63.5q0 59 -44.5 104t-150.5 84q-53 18 -108.5 40t-101.5 55.5 t-75.5 86t-29.5 136.5z" />
<glyph unicode="t" horiz-adv-x="757" d="M51 922v135h166v270h127v-270h293v-135h-293v-596q0 -43 3 -83t16.5 -71t39 -50.5t70.5 -19.5t85 9.5t69 19.5q35 12 61 31l33 -111q-39 -20 -84 -35q-39 -14 -88 -24t-103 -10q-53 0 -96 15t-72.5 53t-45 99.5t-15.5 153.5v619h-166z" />
<glyph unicode="u" horiz-adv-x="1028" d="M154 340v436q0 135 2 281h129v-287v-116.5v-113t1 -98.5t1 -73q0 -59 5 -107.5t19.5 -83.5t39 -55.5t63.5 -20.5h8q61 0 110 29q52 31 89 70q43 45 75 102l-2 754h129v-1057h-129v170q-37 -53 -84 -94q-41 -36 -94 -64q-50 -27 -110 -26h-9q-131 4 -187 100t-56 254z" />
<glyph unicode="v" horiz-adv-x="827" d="M2 1057h141l248 -844l250 844h141l-327 -1057h-125z" />
<glyph unicode="w" horiz-adv-x="1316" d="M37 1057h133l184 -877l236 668h125l211 -660l204 869h138l-271 -1057h-120l-228 672l-250 -672h-118z" />
<glyph unicode="x" horiz-adv-x="890" d="M59 1057h148l242 -424l243 424h137l-313 -529l305 -528h-145l-234 410l-237 -410h-137l307 522z" />
<glyph unicode="y" horiz-adv-x="864" d="M18 -371l33 117q18 -8 41 -16q18 -6 40 -11.5t44 -3.5q25 2 48.5 14.5t47 44t48 87t51.5 141.5l-15 45q-16 45 -38.5 119t-52 169t-60.5 193l-164 529h141q16 -63 39 -133q16 -59 40 -136t46 -157l123 -426l250 852h141q-96 -309 -176 -561q-35 -109 -67.5 -214.5 t-61.5 -192.5l-49.5 -148.5l-26.5 -79.5q-12 -31 -32.5 -76t-51 -88t-72.5 -74t-98 -31q-35 0 -65.5 5.5t-52.5 13.5q-27 8 -50 18z" />
<glyph unicode="z" horiz-adv-x="831" d="M57 0v109l504 833h-491v115h653v-103l-508 -837h508v-117h-666z" />
<glyph unicode="{" horiz-adv-x="716" d="M12 618q6 0 39 6.5t70 27t65.5 57t28.5 98.5v311q0 86 28.5 137.5t84 78t136.5 34.5t185 8v-51q-78 0 -132 -6t-87 -26.5t-47 -61.5t-14 -111v-305q0 -55 -14.5 -92t-32 -59.5t-33 -32.5t-19.5 -13q6 -2 22.5 -12t33 -31.5t30 -56.5t13.5 -86v-311q0 -78 19.5 -120 t56 -61.5t89 -22.5t115.5 -3v-51q-102 0 -183 7t-136.5 34.5t-85 85t-29.5 157.5v299q0 57 -28.5 91t-65.5 51.5t-70 23.5t-39 6z" />
<glyph unicode="|" d="M459 -592v2210h106v-2210h-106z" />
<glyph unicode="}" horiz-adv-x="716" d="M72 -86q63 0 114.5 3t88 22.5t57 61.5t20.5 120v311q0 51 13.5 86t31 56.5t31.5 31.5t18 12q-6 2 -21 13.5t-31.5 34t-29 59.5t-12.5 90v305q0 70 -14 111t-47 61.5t-87 26.5t-132 6v51h8q102 0 181 -8t133.5 -34.5t82 -78t27.5 -137.5v-311q0 -61 27.5 -98t63.5 -56.5 t68.5 -27t43.5 -7.5q-6 0 -38 -5t-68 -22.5t-65.5 -52t-29.5 -92.5v-127q0 -43 -1 -87t-1 -85q0 -100 -29 -157.5t-84 -85t-136 -34.5t-183 -7v51z" />
<glyph unicode="~" horiz-adv-x="1153" d="M16 610q-2 0 20.5 39t62.5 85t96.5 85t123.5 39q78 0 149 -25.5t128 -54.5q55 -27 109.5 -48t113.5 -21t105.5 30.5t74.5 69.5q35 43 58 100l80 -55q-35 -66 -82 -119q-41 -45 -99.5 -81t-134.5 -36q-63 0 -128.5 25t-129.5 53q-59 29 -118.5 51.5t-112.5 22.5t-96 -32.5 t-74 -73.5q-37 -47 -64 -107z" />
<glyph unicode="&#xa1;" horiz-adv-x="530" d="M160 0l41 950h147l35 -950h-223zM170 1057v301h203v-301h-203z" />
<glyph unicode="&#xa2;" d="M121 700q0 119 28.5 210t74.5 154.5t104.5 102.5t120.5 54v163h153v-161q74 -16 125 -54.5t84 -76.5q37 -47 63 -99l-137 -65q-10 33 -28 63q-16 27 -41 51.5t-66 40.5v-811q41 16 73 45t54 58q25 35 45 71l129 -84q-29 -55 -72 -100q-37 -41 -93 -76.5t-136 -48.5v-155 h-153v157q-154 29 -241 173.5t-87 387.5zM281 715q0 -74 7 -144.5t26.5 -130t52 -103.5t82.5 -63v809q-74 -35 -121 -132t-47 -236z" />
<glyph unicode="&#xa3;" d="M53 700v113h183q-16 55 -33 117.5t-17 111.5q0 61 26 122t74 108t114.5 75.5t146.5 28.5q106 0 176 -36.5t113 -82.5q49 -53 77 -116l-139 -51q-14 45 -41 81q-25 31 -66.5 56.5t-111.5 25.5q-68 0 -110 -22.5t-63.5 -55t-28.5 -71.5t-7 -70q0 -45 13.5 -103.5 t29.5 -117.5h365v-113h-332q23 -70 38 -135t15 -116q0 -47 -13 -91.5t-32.5 -83t-40 -69.5t-33.5 -47q20 10 57.5 19t88.5 9q41 0 76.5 -13t68.5 -30q29 -14 51.5 -24t44.5 -10q23 0 47.5 14t45.5 31q23 20 47 45l78 -107q-23 -33 -56 -55q-29 -23 -67.5 -39t-92.5 -16 q-53 0 -80.5 11t-50.5 25q-25 16 -55.5 28.5t-89.5 12.5q-47 0 -90 -12t-78 -29q-39 -18 -76 -41l-78 101q47 51 84 110q31 51 57.5 116t26.5 136q0 68 -13 134.5t-30 125.5h-219z" />
<glyph unicode="&#xa4;" horiz-adv-x="1224" />
<glyph unicode="&#xa5;" d="M86 1331l141 58l287 -691q70 166 141.5 341t141.5 341l145 -49l-313 -674h260v-114h-301v-123t1 -148.5t1 -148.5v-123h-154l4 543h-297v114h254q-74 164 -155.5 337t-155.5 337z" />
<glyph unicode="&#xa6;" horiz-adv-x="530" d="M221 141h105v-731h-105v731zM221 879v733h105v-733h-105z" />
<glyph unicode="&#xa7;" d="M166 258l151 55q16 -59 45 -104q25 -41 65 -73t99 -32q33 0 65 7.5t56.5 25t39.5 44t15 65.5t-18 72.5t-72 62.5q-29 14 -67.5 33.5t-81.5 42t-83 45t-71 41.5q-59 41 -82.5 88t-23.5 102q0 39 11 73t28.5 59.5t36 44t32.5 28.5h-2q-39 33 -64.5 76t-25.5 102t26.5 106.5 t70.5 81t99.5 52t114.5 18.5q92 0 153.5 -34.5t96.5 -75.5q41 -49 64 -111l-129 -55q-16 43 -41 78q-23 29 -58.5 53t-89.5 24q-63 0 -105 -37.5t-42 -103.5q0 -59 36 -86t66 -41l244 -127q66 -33 99.5 -88t33.5 -123q0 -35 -12 -63.5t-30.5 -53t-38.5 -43t-34 -28.5 q59 -41 89 -93.5t30 -123.5q0 -43 -22.5 -88t-64.5 -84t-103.5 -63.5t-139.5 -24.5q-80 0 -139 21.5t-104 59t-75 88t-48 107.5zM360 737q0 -53 30 -77.5t59 -38.5l190 -105q16 14 38.5 47t22.5 86q0 37 -20.5 63.5t-56 50t-85 47.5t-106.5 54q-4 2 -10 4t-8 4 q-16 -18 -35 -53t-19 -82z" />
<glyph unicode="&#xa8;" d="M219 1257q0 53 31 91t76 38q43 0 74.5 -38t31.5 -91t-31.5 -90t-74.5 -37q-45 0 -76 37t-31 90zM590 1257q0 53 30.5 91t75.5 38q43 0 75 -38t32 -91t-32 -90t-75 -37q-45 0 -75.5 37t-30.5 90z" />
<glyph unicode="&#xa9;" horiz-adv-x="1288" d="M33 680q0 143 48 270t131 221.5t194.5 148.5t238.5 54t238.5 -54t194.5 -148.5t131 -221.5t48 -270q0 -145 -48 -271t-131 -221.5t-194.5 -149.5t-238.5 -54t-238.5 54t-194.5 149.5t-131 221.5t-48 271zM150 680q0 -123 38.5 -232.5t106 -190.5t159 -128t193.5 -47 t193.5 47t159 128t106.5 190.5t39 232.5t-39 231.5t-106.5 189.5t-158.5 128t-194 47q-102 0 -193.5 -47t-159 -128t-106 -189.5t-38.5 -231.5zM330 686q0 84 23.5 156.5t68.5 127t107.5 85t140.5 30.5q98 0 155.5 -40.5t85.5 -90.5q35 -57 45 -131h-118q-4 43 -23 80 q-16 31 -50 56.5t-93 25.5q-61 0 -103.5 -25.5t-69 -67.5t-38.5 -95.5t-12 -108.5t13 -110.5t40.5 -98.5t70.5 -70.5t101 -27.5q57 0 90 26.5t49 59.5q20 37 25 86h118q-10 -78 -47 -137q-31 -51 -89 -93t-154 -42t-161 43t-104 106.5t-55 133t-16 122.5z" />
<glyph unicode="&#xaa;" d="M193 479v113h638v-113h-638zM209 731l225 627h160l225 -627l-145 -45l-64 184h-192l-64 -184zM455 983h118l-59 172z" />
<glyph unicode="&#xab;" horiz-adv-x="1138" d="M29 672l528 499l102 -106l-440 -393l440 -398l-102 -106zM483 672l529 499l102 -106l-440 -393l440 -398l-102 -106z" />
<glyph unicode="&#xac;" horiz-adv-x="1144" d="M25 823v90h1097v-532h-104v442h-993z" />
<glyph unicode="&#xad;" d="M272 465v129h482v-129h-482z" />
<glyph unicode="&#xae;" horiz-adv-x="1261" d="M23 680q0 143 48 270t131 221.5t194.5 148.5t238.5 54t238.5 -54t194.5 -148.5t131 -221.5t48 -270q0 -145 -48 -271t-131 -221.5t-194.5 -149.5t-238.5 -54t-238.5 54t-194.5 149.5t-131 221.5t-48 271zM139 680q0 -123 39 -232.5t106.5 -190.5t157.5 -128t195 -47 q102 0 193.5 47t159 128t106.5 190.5t39 232.5t-39 231.5t-106.5 189.5t-159 128t-193.5 47q-104 0 -194.5 -47t-158 -128t-106.5 -189.5t-39 -231.5zM403 287v774h320q37 0 79 -9.5t75.5 -33t56 -62t22.5 -100.5q0 -59 -19 -99t-51 -64.5t-70 -36t-75 -11.5l207 -358h-135 l-192 358h-99v-358h-119zM522 745h176q55 0 97.5 23t42.5 92q0 35 -13.5 54.5t-32 29.5t-41 12t-40.5 2h-115q-37 0 -74 3v-216z" />
<glyph unicode="&#xaf;" d="M213 1206v97h602v-97h-602z" />
<glyph unicode="&#xb0;" d="M115 1118q0 82 31.5 153.5t85 125t126 84t156.5 30.5q82 0 155.5 -30.5t128 -84t86 -125t31.5 -153.5t-31.5 -153.5t-86 -126t-128 -85t-155.5 -30.5q-84 0 -156.5 30.5t-126 85t-85 126t-31.5 153.5zM215 1118q0 -66 23.5 -122t63.5 -98t95.5 -66.5t116.5 -24.5 t116.5 24.5t96.5 66.5t64.5 98.5t23.5 121.5q0 63 -23.5 119.5t-64.5 98.5t-96.5 66.5t-116.5 24.5t-116.5 -24.5t-95.5 -66.5t-63.5 -98.5t-23.5 -119.5z" />
<glyph unicode="&#xb1;" horiz-adv-x="1140" d="M25 80v90h1099v-90h-1099zM25 782v90h497v498h99v-498h503v-90h-503v-495h-99v495h-497z" />
<glyph unicode="&#xb2;" d="M276 1155q8 61 37 111q25 41 73 75.5t136 34.5q111 0 168.5 -54t57.5 -132q0 -53 -30 -97t-71 -92h2q-2 -4 -3 -3t-3 -3q-33 -41 -68.5 -79.5t-64.5 -69.5l-70 -70h297v-100h-458v82q66 76 118 139q47 53 91 104.5t61 69.5q33 33 49 60.5t12 68.5q-4 27 -26.5 50.5 t-59.5 23.5q-18 0 -37.5 -4t-35 -18.5t-26.5 -40t-15 -70.5z" />
<glyph unicode="&#xb3;" d="M270 1284v92h467v-84l-194 -168q8 0 40.5 -5t69.5 -23.5t67 -53t30 -94.5q0 -63 -31 -113.5t-83 -86t-121 -55t-144 -19.5h-64q-14 0 -26 2v100q152 0 240.5 41t88.5 119q0 55 -34.5 79.5t-94.5 24.5q-51 0 -121 -14v78l199 178q-70 0 -144.5 1t-144.5 1z" />
<glyph unicode="&#xb4;" d="M301 1208l377 215l76 -131l-398 -178z" />
<glyph unicode="&#xb5;" d="M160 -430v1489h153v-699q0 -41 9.5 -85t32 -80.5t58.5 -61t91 -24.5t94 25.5t63.5 66.5t36 93t11.5 107v658h153v-1059h-153v96q-10 -16 -26.5 -35.5t-41.5 -37t-56.5 -29.5t-70.5 -12q-78 0 -127 31.5t-74 60.5v-504h-153z" />
<glyph unicode="&#xb6;" d="M8 979q0 117 42 193.5t110.5 121.5t155.5 62.5t178 17.5h520v-121h-92v-1390h-154v1390h-158v-1390h-151v704q-92 0 -174 20.5t-143.5 69t-97.5 127t-36 195.5z" />
<glyph unicode="&#xb7;" d="M401 731q0 43 33 73t78 30q47 0 79 -30t32 -73q0 -41 -32 -71.5t-79 -30.5q-45 0 -78 30.5t-33 71.5z" />
<glyph unicode="&#xb8;" d="M330 -326l41 107q33 -14 61 -23q25 -10 51.5 -16t44.5 -6q16 0 36 6t20 35q0 14 -5.5 25.5t-23.5 19.5t-53 13t-92 5l67 187h139l-36 -113q8 0 34.5 -4t55 -19.5t50 -47t21.5 -87.5q0 -63 -60 -107t-163 -34q-23 2 -55.5 12.5t-61.5 20.5q-35 12 -71 26z" />
<glyph unicode="&#xb9;" d="M313 1278l295 111v-613h113v-100h-393v100h141v459l-121 -49z" />
<glyph unicode="&#xba;" d="M188 479v113h639v-113h-639zM242 1040q0 147 67.5 241.5t204.5 94.5q133 0 202.5 -93t69.5 -243q0 -74 -20.5 -135t-56 -105t-86 -68.5t-109.5 -24.5q-61 0 -111.5 24.5t-86 68.5t-55 105.5t-19.5 134.5zM395 1040q0 -129 33 -176t86 -47q61 0 90 59.5t29 163.5t-30 164 t-89 60q-23 0 -43 -10.5t-37.5 -37t-28 -69.5t-10.5 -107z" />
<glyph unicode="&#xbb;" horiz-adv-x="1116" d="M20 274l441 398l-441 393l103 106l528 -499l-528 -504zM475 274l440 398l-440 393l103 106l528 -499l-528 -504z" />
<glyph unicode="&#xbc;" horiz-adv-x="1212" d="M68 1278l294 111v-613h111v-100h-391v100h141v459l-121 -49zM158 27l770 1362l116 -64l-768 -1356zM666 158l116 547l133 -23l-112 -422h153v330h138v-330h65v-102h-65v-158h-138v158h-290z" />
<glyph unicode="&#xbd;" horiz-adv-x="1177" d="M70 1278l292 111v-613h113v-100h-393v100h143v459l-121 -49zM156 27l768 1362l118 -64l-770 -1356zM653 481q8 61 37 111q25 41 73 75.5t136 34.5q113 0 170 -54t57 -132q0 -51 -29.5 -94t-66.5 -90l-14 -17q-35 -39 -70 -76.5t-63 -66.5q-35 -37 -66 -68h299v-102h-461 v84q63 74 117 137q47 53 91 104.5t63 69.5q35 33 50 61.5t11 69.5q-2 27 -24.5 49.5t-61.5 22.5q-18 0 -36.5 -4t-34 -18.5t-26.5 -40t-18 -70.5z" />
<glyph unicode="&#xbe;" horiz-adv-x="1226" d="M49 1284v92h465v-84l-195 -168q8 0 41 -5t70 -23.5t66.5 -53t29.5 -94.5q0 -63 -30.5 -113.5t-83 -86t-121 -55t-144.5 -19.5h-63q-14 0 -25 2v100q150 0 239 41t89 119q0 55 -35 79.5t-94 24.5q-51 0 -121 -14v78l199 178q-70 0 -143.5 1t-143.5 1zM147 27l771 1362 l116 -64l-768 -1356zM655 158l119 547l133 -23l-112 -422h151v330h139v-330h66v-102h-66v-158h-139v158h-291z" />
<glyph unicode="&#xbf;" d="M133 309q0 53 14.5 99.5t38 84t51 69.5t54.5 54q53 45 84 75t45 57.5t17 61.5t3 89h156q0 -45 -3 -84t-15.5 -76t-35 -72.5t-61.5 -72.5l-43 -39q-66 -61 -106.5 -111.5t-40.5 -130.5q0 -41 11 -80.5t34.5 -70.5t61.5 -50.5t91 -19.5q51 0 94.5 22.5t76 62.5t53 92.5 t28.5 111.5l146 -37h6q-18 -109 -68 -190q-20 -35 -50 -69t-70.5 -60.5t-93 -43t-117.5 -16.5q-59 0 -123 17.5t-117 58.5t-87 106.5t-34 161.5zM418 1038v301h203v-301h-203z" />
<glyph unicode="&#xc0;" horiz-adv-x="907" d="M20 12l342 1346h181l344 -1346l-152 -41l-104 445h-357q-27 -109 -52 -222.5t-52 -222.5zM244 1591l76 131l377 -215l-56 -94zM303 537h299l-149 637z" />
<glyph unicode="&#xc1;" horiz-adv-x="907" d="M20 12l342 1346h181l344 -1346l-152 -41l-104 445h-357q-27 -109 -52 -222.5t-52 -222.5zM242 1507l377 215l76 -131l-398 -178zM303 537h299l-149 637z" />
<glyph unicode="&#xc2;" horiz-adv-x="907" d="M20 12l342 1346h181l344 -1346l-152 -41l-104 445h-357q-27 -109 -52 -222.5t-52 -222.5zM137 1493l322 211l321 -211l-49 -78l-272 129l-270 -129zM303 537h299l-149 637z" />
<glyph unicode="&#xc3;" horiz-adv-x="907" d="M20 12l342 1346h181l344 -1346l-152 -41l-104 445h-357q-27 -109 -52 -222.5t-52 -222.5zM135 1479q-2 0 8.5 30.5t35 67.5t63.5 67.5t94 30.5q51 0 83 -21.5t61 -43.5q23 -23 45 -38.5t51 -15.5q23 0 37 19.5t24 44.5q10 29 17 65l120 -36q-14 -59 -38 -107 q-23 -41 -60 -73.5t-94 -32.5q-66 0 -98.5 21.5t-59.5 45.5q-20 20 -39.5 34.5t-48.5 14.5q-23 0 -38 -21.5t-27 -45.5q-14 -29 -25 -66zM303 537h299l-149 637z" />
<glyph unicode="&#xc4;" horiz-adv-x="907" d="M20 12l342 1346h181l344 -1346l-152 -41l-104 445h-357q-27 -109 -52 -222.5t-52 -222.5zM166 1556q0 53 31 91t76 38q43 0 74.5 -38t31.5 -91t-31.5 -90t-74.5 -37q-45 0 -76 37t-31 90zM303 537h299l-149 637zM537 1556q0 53 30.5 91t75.5 38q43 0 75 -38t32 -91 t-32 -90t-75 -37q-45 0 -75.5 37t-30.5 90z" />
<glyph unicode="&#xc5;" horiz-adv-x="907" d="M20 12l342 1346h181l344 -1346l-152 -41l-104 445h-357q-27 -109 -52 -222.5t-52 -222.5zM268 1597q0 37 15.5 71t41 58.5t60.5 39t74 14.5t73.5 -14.5t60.5 -39t40 -58.5t14 -71t-14 -69.5t-40 -57t-60.5 -39t-73.5 -14.5t-74 14.5t-60.5 39t-41 57t-15.5 69.5zM303 537 h299l-149 637zM371 1597q0 -41 25.5 -68.5t62.5 -27.5t62.5 27.5t25.5 68.5t-25.5 69t-62.5 28t-62.5 -28t-25.5 -69z" />
<glyph unicode="&#xc6;" horiz-adv-x="1056" d="M18 12l342 1344h621v-121h-319v-457h280v-123h-280v-534h319v-121h-473v420q-57 0 -113.5 -1t-113.5 -1l-107 -447zM307 541q51 0 100.5 1t100.5 1v692h-37z" />
<glyph unicode="&#xc7;" horiz-adv-x="966" d="M94 717q0 127 22.5 245.5t72 211t128 147.5t191.5 55q94 0 160.5 -35.5t107.5 -76.5q49 -51 80 -113l-131 -76q-23 49 -53 86q-29 33 -69 59.5t-95 26.5q-113 0 -183.5 -128t-70.5 -378q0 -125 9.5 -238.5t37 -200.5t76.5 -139t131 -52q53 0 97 28.5t77 63.5q37 41 66 94 l127 -88q-39 -63 -92 -115q-47 -43 -115 -77.5t-160 -34.5q-90 0 -166 38.5t-131 125.5t-86 227.5t-31 343.5zM301 -326l41 107q33 -14 61 -23q25 -10 51.5 -16t44.5 -6q16 0 36 6t20 35q0 14 -5.5 25.5t-23.5 19.5t-53 13t-92 5l67 187h139l-36 -113q8 0 34.5 -4t55 -19.5 t50 -47t21.5 -87.5q0 -63 -60 -107t-163 -34q-23 2 -55.5 12.5t-61.5 20.5q-35 12 -71 26z" />
<glyph unicode="&#xc8;" horiz-adv-x="958" d="M145 0v1358h670v-123h-518v-457h434v-123h-434v-532h518v-123h-670zM221 1591l76 131l377 -215l-56 -94z" />
<glyph unicode="&#xc9;" horiz-adv-x="958" d="M145 0v1358h670v-123h-518v-457h434v-123h-434v-532h518v-123h-670zM221 1507l377 215l76 -131l-398 -178z" />
<glyph unicode="&#xca;" horiz-adv-x="958" d="M145 1493l322 211l321 -211l-49 -78l-272 129l-270 -129zM147 0v1358h670v-123h-518v-457h434v-123h-434v-532h518v-123h-670z" />
<glyph unicode="&#xcb;" horiz-adv-x="958" d="M145 0v1358h670v-123h-518v-457h434v-123h-434v-532h518v-123h-670zM174 1556q0 53 31 91t76 38q43 0 74.5 -38t31.5 -91t-31.5 -90t-74.5 -37q-45 0 -76 37t-31 90zM545 1556q0 53 30.5 91t75.5 38q43 0 75 -38t32 -91t-32 -90t-75 -37q-45 0 -75.5 37t-30.5 90z" />
<glyph unicode="&#xcc;" horiz-adv-x="686" d="M84 0v123h182v1112h-182v123h520v-123h-184v-1112h184v-123h-520zM117 1591l76 131l377 -215l-56 -94z" />
<glyph unicode="&#xcd;" horiz-adv-x="686" d="M84 0v123h182v1112h-182v123h520v-123h-184v-1112h184v-123h-520zM117 1507l377 215l76 -131l-398 -178z" />
<glyph unicode="&#xce;" horiz-adv-x="686" d="M22 1493l322 211l321 -211l-49 -78l-272 129l-270 -129zM84 0v123h182v1112h-182v123h520v-123h-184v-1112h184v-123h-520z" />
<glyph unicode="&#xcf;" horiz-adv-x="686" d="M53 1556q0 53 31 91t76 38q43 0 74.5 -38t31.5 -91t-31.5 -90t-74.5 -37q-45 0 -76 37t-31 90zM86 0v123h182v1112h-182v123h520v-123h-184v-1112h184v-123h-520zM424 1556q0 53 30.5 91t75.5 38q43 0 75 -38t32 -91t-32 -90t-75 -37q-45 0 -75.5 37t-30.5 90z" />
<glyph unicode="&#xd0;" d="M137 0v123h111v506h-111v110h111v496h-111v123h367q131 0 216 -43t135 -128t70.5 -213t20.5 -296q0 -207 -28.5 -339t-85 -207t-141.5 -103.5t-195 -28.5h-359zM401 123h103q78 0 131 24.5t87 88t49 171t15 271.5t-17 271.5t-48 171t-74 89t-94 25.5h-152v-496h158v-110 h-158v-506z" />
<glyph unicode="&#xd1;" horiz-adv-x="1093" d="M184 0v1358h189l387 -1114q0 287 -2 557t-2 557h153v-1358h-188l-385 1122q0 -283 1 -561t1 -561h-154zM227 1479q-2 0 8.5 30.5t35 67.5t63.5 67.5t94 30.5q51 0 83 -21.5t61 -43.5q23 -23 45 -38.5t51 -15.5q23 0 37 19.5t24 44.5q10 29 17 65l120 -36 q-14 -59 -38 -107q-23 -41 -60 -73.5t-94 -32.5q-66 0 -98.5 21.5t-59.5 45.5q-20 20 -39.5 34.5t-48.5 14.5q-23 0 -38 -21.5t-27 -45.5q-14 -29 -25 -66z" />
<glyph unicode="&#xd2;" horiz-adv-x="974" d="M102 680q0 143 18.5 267t63.5 216t119 144.5t184 52.5q115 0 190 -52.5t118 -144.5t60 -216t17 -267q0 -209 -30.5 -344t-82.5 -214t-122 -109.5t-150 -30.5t-149.5 30.5t-121.5 108.5t-83 214t-31 345zM262 680q0 -184 17.5 -296t48 -173t71.5 -81.5t88 -20.5t89 19 t73 79.5t48.5 173.5t17.5 299q0 147 -10.5 251.5t-36 172t-69.5 98.5t-112 31q-131 0 -178 -143.5t-47 -409.5zM266 1591l76 131l377 -215l-56 -94z" />
<glyph unicode="&#xd3;" horiz-adv-x="974" d="M102 680q0 143 18.5 267t63.5 216t119 144.5t184 52.5q115 0 190 -52.5t118 -144.5t60 -216t17 -267q0 -209 -30.5 -344t-82.5 -214t-122 -109.5t-150 -30.5t-149.5 30.5t-121.5 108.5t-83 214t-31 345zM262 680q0 -184 17.5 -296t48 -173t71.5 -81.5t88 -20.5t89 19 t73 79.5t48.5 173.5t17.5 299q0 147 -10.5 251.5t-36 172t-69.5 98.5t-112 31q-131 0 -178 -143.5t-47 -409.5zM266 1507l377 215l76 -131l-398 -178z" />
<glyph unicode="&#xd4;" horiz-adv-x="974" d="M102 680q0 143 18.5 267t63.5 216t119 144.5t184 52.5q115 0 190 -52.5t118 -144.5t60 -216t17 -267q0 -209 -30.5 -344t-82.5 -214t-122 -109.5t-150 -30.5t-149.5 30.5t-121.5 108.5t-83 214t-31 345zM170 1493l322 211l321 -211l-49 -78l-272 129l-270 -129zM262 680 q0 -184 17.5 -296t48 -173t71.5 -81.5t88 -20.5t89 19t73 79.5t48.5 173.5t17.5 299q0 147 -10.5 251.5t-36 172t-69.5 98.5t-112 31q-131 0 -178 -143.5t-47 -409.5z" />
<glyph unicode="&#xd5;" horiz-adv-x="974" d="M102 680q0 143 18.5 267t63.5 216t119 144.5t184 52.5q115 0 190 -52.5t118 -144.5t60 -216t17 -267q0 -209 -30.5 -344t-82.5 -214t-122 -109.5t-150 -30.5t-149.5 30.5t-121.5 108.5t-83 214t-31 345zM174 1479q-2 0 8.5 30.5t35 67.5t63.5 67.5t94 30.5q51 0 83 -21.5 t61 -43.5q23 -23 45 -38.5t51 -15.5q23 0 37 19.5t24 44.5q10 29 17 65l120 -36q-14 -59 -38 -107q-23 -41 -60 -73.5t-94 -32.5q-66 0 -98.5 21.5t-59.5 45.5q-20 20 -39.5 34.5t-48.5 14.5q-23 0 -38 -21.5t-27 -45.5q-14 -29 -25 -66zM262 680q0 -184 17.5 -296t48 -173 t71.5 -81.5t88 -20.5t89 19t73 79.5t48.5 173.5t17.5 299q0 147 -10.5 251.5t-36 172t-69.5 98.5t-112 31q-131 0 -178 -143.5t-47 -409.5z" />
<glyph unicode="&#xd6;" horiz-adv-x="974" d="M102 680q0 143 18.5 267t63.5 216t119 144.5t184 52.5q115 0 190 -52.5t118 -144.5t60 -216t17 -267q0 -209 -30.5 -344t-82.5 -214t-122 -109.5t-150 -30.5t-149.5 30.5t-121.5 108.5t-83 214t-31 345zM182 1556q0 53 31 91t76 38q43 0 74.5 -38t31.5 -91t-31.5 -90 t-74.5 -37q-45 0 -76 37t-31 90zM262 680q0 -184 17.5 -296t48 -173t71.5 -81.5t88 -20.5t89 19t73 79.5t48.5 173.5t17.5 299q0 147 -10.5 251.5t-36 172t-69.5 98.5t-112 31q-131 0 -178 -143.5t-47 -409.5zM553 1556q0 53 30.5 91t75.5 38q43 0 75 -38t32 -91t-32 -90 t-75 -37q-45 0 -75.5 37t-30.5 90z" />
<glyph unicode="&#xd7;" horiz-adv-x="1148" d="M29 256l477 477l-477 477l69 70l477 -477l480 477l67 -70l-477 -477l477 -477l-67 -72l-480 480l-477 -480z" />
<glyph unicode="&#xd8;" horiz-adv-x="974" d="M57 43l113 205q-23 78 -37 187.5t-14 242.5q0 143 18.5 271t62.5 222.5t117.5 149.5t184.5 55q78 0 136 -25.5t99 -68.5l62 117l116 -66l-98 -178q37 -92 53.5 -217t16.5 -260q0 -207 -31 -342t-83 -214t-121.5 -109.5t-149.5 -30.5q-78 0 -143.5 25.5t-116.5 96.5 l-68 -124zM276 678q0 -66 2.5 -120t6.5 -101l379 692q-29 49 -68 74.5t-94 25.5q-66 0 -109 -39t-69.5 -112.5t-37 -179t-10.5 -240.5zM324 256q33 -86 79 -116.5t99 -30.5q47 0 89 19t72.5 79.5t48 173.5t17.5 297q0 92 -3 161.5t-11 129.5z" />
<glyph unicode="&#xd9;" horiz-adv-x="1048" d="M182 324v1034h154v-1002q0 -47 7 -92t27.5 -78.5t56.5 -54t95 -20.5t96 22.5t58.5 57t29 78.5t7.5 87v1002h151v-1028q0 -78 -25.5 -142.5t-70.5 -110.5t-108.5 -70.5t-137.5 -24.5t-136 23.5t-107.5 67.5t-71 107.5t-25.5 143.5zM297 1591l76 131l377 -215l-56 -94z" />
<glyph unicode="&#xda;" horiz-adv-x="1048" d="M182 324v1034h154v-1002q0 -47 7 -92t27.5 -78.5t56.5 -54t95 -20.5t96 22.5t58.5 57t29 78.5t7.5 87v1002h151v-1028q0 -78 -25.5 -142.5t-70.5 -110.5t-108.5 -70.5t-137.5 -24.5t-136 23.5t-107.5 67.5t-71 107.5t-25.5 143.5zM297 1507l377 215l76 -131l-398 -178z " />
<glyph unicode="&#xdb;" horiz-adv-x="1048" d="M182 324v1034h154v-1002q0 -47 7 -92t27.5 -78.5t56.5 -54t95 -20.5t96 22.5t58.5 57t29 78.5t7.5 87v1002h151v-1028q0 -78 -25.5 -142.5t-70.5 -110.5t-108.5 -70.5t-137.5 -24.5t-136 23.5t-107.5 67.5t-71 107.5t-25.5 143.5zM198 1493l322 211l321 -211l-49 -78 l-272 129l-270 -129z" />
<glyph unicode="&#xdc;" horiz-adv-x="1048" d="M182 324v1034h154v-1002q0 -47 7 -92t27.5 -78.5t56.5 -54t95 -20.5t96 22.5t58.5 57t29 78.5t7.5 87v1002h151v-1028q0 -78 -25.5 -142.5t-70.5 -110.5t-108.5 -70.5t-137.5 -24.5t-136 23.5t-107.5 67.5t-71 107.5t-25.5 143.5zM227 1556q0 53 31 91t76 38 q43 0 74.5 -38t31.5 -91t-31.5 -90t-74.5 -37q-45 0 -76 37t-31 90zM598 1556q0 53 30.5 91t75.5 38q43 0 75 -38t32 -91t-32 -90t-75 -37q-45 0 -75.5 37t-30.5 90z" />
<glyph unicode="&#xdd;" horiz-adv-x="901" d="M45 1280l141 57l267 -653q70 172 134 329.5t134 329.5l139 -57l-332 -749v-537h-153v537zM231 1507l377 215l76 -131l-398 -178z" />
<glyph unicode="&#xde;" horiz-adv-x="1011" d="M162 0v1358h153v-303h185q51 0 112.5 -14.5t113.5 -53.5t88 -109.5t36 -181.5t-31 -186.5t-77 -121.5t-102 -65.5t-105 -19.5h-220v-303h-153zM315 428h193q35 0 67.5 18.5t58 50t41 76.5t15.5 99q0 53 -9 100t-30.5 83t-56.5 56.5t-86 20.5h-193v-504z" />
<glyph unicode="&#xdf;" horiz-adv-x="944" d="M193 0v813q0 117 80.5 190.5t209.5 73.5q63 0 113.5 -20.5t84.5 -56t51.5 -83t17.5 -100.5q0 -59 -20.5 -101t-45.5 -70t-47.5 -42t-26.5 -16q8 -2 44 -12.5t76 -40t73 -84t33 -144.5q0 -96 -31 -155.5t-77 -93t-103.5 -46t-108.5 -12.5h-110v121h116q27 0 54.5 8 t50 28.5t37 55.5t14.5 88q0 106 -52.5 154.5t-166.5 48.5v123q18 0 41.5 11t43 33.5t34 55.5t14.5 76q0 147 -123 147q-66 0 -94.5 -43t-28.5 -135v-772h-153z" />
<glyph unicode="&#xe0;" horiz-adv-x="933" d="M121 270q0 37 13 85t47 94.5t88.5 83t138.5 51.5q31 4 73.5 11t83.5 11q47 6 94 10q-2 12 -2 25v47q0 92 -17 143.5t-46 77t-64.5 31.5t-70.5 6t-80 -16.5t-86 -34.5q-47 -23 -96 -49q-14 31 -23 55q-8 23 -15 40t-5 17l29 18q28 17 74 37.5t104.5 38t119.5 17.5 t116.5 -17.5t98.5 -57.5t69 -106.5t26 -166.5v-173v-128t-1 -94t-1 -72q-2 -63 2 -109.5t8 -78.5q6 -37 10 -66h-129l-6 43q-4 23 -6 53.5t0 75.5q0 2 -18.5 -28.5t-55.5 -68.5t-94.5 -70t-134.5 -32q-78 0 -126 33t-74 79t-35 97t-9 88zM231 1292l76 131l377 -215l-56 -94z M258 279q-4 -86 35 -129.5t106 -43.5q33 0 73 15.5t77 41t66.5 62.5t43.5 80q-2 2 -2 33v65v64q0 15 2 29q-45 -2 -83 -7q-35 -4 -72 -9t-62 -9q-25 -6 -56.5 -19.5t-59 -36t-47 -57t-21.5 -79.5z" />
<glyph unicode="&#xe1;" horiz-adv-x="933" d="M121 270q0 37 13 85t47 94.5t88.5 83t138.5 51.5q31 4 73.5 11t83.5 11q47 6 94 10q-2 12 -2 25v47q0 92 -17 143.5t-46 77t-64.5 31.5t-70.5 6t-80 -16.5t-86 -34.5q-47 -23 -96 -49q-14 31 -23 55q-8 23 -15 40t-5 17l29 18q28 17 74 37.5t104.5 38t119.5 17.5 t116.5 -17.5t98.5 -57.5t69 -106.5t26 -166.5v-173v-128t-1 -94t-1 -72q-2 -63 2 -109.5t8 -78.5q6 -37 10 -66h-129l-6 43q-4 23 -6 53.5t0 75.5q0 2 -18.5 -28.5t-55.5 -68.5t-94.5 -70t-134.5 -32q-78 0 -126 33t-74 79t-35 97t-9 88zM231 1208l377 215l76 -131 l-398 -178zM258 279q-4 -86 35 -129.5t106 -43.5q33 0 73 15.5t77 41t66.5 62.5t43.5 80q-2 2 -2 33v65v64q0 15 2 29q-45 -2 -83 -7q-35 -4 -72 -9t-62 -9q-25 -6 -56.5 -19.5t-59 -36t-47 -57t-21.5 -79.5z" />
<glyph unicode="&#xe2;" horiz-adv-x="933" d="M121 270q0 37 13 85t47 94.5t88.5 83t138.5 51.5q31 4 73.5 11t83.5 11q47 6 94 10q-2 12 -2 25v47q0 92 -17 143.5t-46 77t-64.5 31.5t-70.5 6t-80 -16.5t-86 -34.5q-47 -23 -96 -49q-14 31 -23 55q-8 23 -15 40t-5 17l29 18q28 17 74 37.5t104.5 38t119.5 17.5 t116.5 -17.5t98.5 -57.5t69 -106.5t26 -166.5v-173v-128t-1 -94t-1 -72q-2 -63 2 -109.5t8 -78.5q6 -37 10 -66h-129l-6 43q-4 23 -6 53.5t0 75.5q0 2 -18.5 -28.5t-55.5 -68.5t-94.5 -70t-134.5 -32q-78 0 -126 33t-74 79t-35 97t-9 88zM135 1194l322 211l321 -211l-49 -78 l-272 129l-270 -129zM258 279q-4 -86 35 -129.5t106 -43.5q33 0 73 15.5t77 41t66.5 62.5t43.5 80q-2 2 -2 33v65v64q0 15 2 29q-45 -2 -83 -7q-35 -4 -72 -9t-62 -9q-25 -6 -56.5 -19.5t-59 -36t-47 -57t-21.5 -79.5z" />
<glyph unicode="&#xe3;" horiz-adv-x="933" d="M121 270q0 37 13 85t47 94.5t88.5 83t138.5 51.5q31 4 73.5 11t83.5 11q47 6 94 10q-2 12 -2 25v47q0 92 -17 143.5t-46 77t-64.5 31.5t-70.5 6t-80 -16.5t-86 -34.5q-47 -23 -96 -49q-14 31 -23 55q-8 23 -15 40t-5 17l29 18q28 17 74 37.5t104.5 38t119.5 17.5 t116.5 -17.5t98.5 -57.5t69 -106.5t26 -166.5v-173v-128t-1 -94t-1 -72q-2 -63 2 -109.5t8 -78.5q6 -37 10 -66h-129l-6 43q-4 23 -6 53.5t0 75.5q0 2 -18.5 -28.5t-55.5 -68.5t-94.5 -70t-134.5 -32q-78 0 -126 33t-74 79t-35 97t-9 88zM139 1180q-2 0 8.5 30.5t35 67.5 t63.5 67.5t94 30.5q51 0 83 -21.5t61 -43.5q23 -23 45 -38.5t51 -15.5q23 0 37 19.5t24 44.5q10 29 17 65l120 -36q-14 -59 -38 -107q-23 -41 -60 -73.5t-94 -32.5q-66 0 -98.5 21.5t-59.5 45.5q-20 20 -39.5 34.5t-48.5 14.5q-23 0 -38 -21.5t-27 -45.5q-14 -29 -25 -66z M258 279q-4 -86 35 -129.5t106 -43.5q33 0 73 15.5t77 41t66.5 62.5t43.5 80q-2 2 -2 33v65v64q0 15 2 29q-45 -2 -83 -7q-35 -4 -72 -9t-62 -9q-25 -6 -56.5 -19.5t-59 -36t-47 -57t-21.5 -79.5z" />
<glyph unicode="&#xe4;" horiz-adv-x="933" d="M121 270q0 37 13 85t47 94.5t88.5 83t138.5 51.5q31 4 73.5 11t83.5 11q47 6 94 10q-2 12 -2 25v47q0 92 -17 143.5t-46 77t-64.5 31.5t-70.5 6t-80 -16.5t-86 -34.5q-47 -23 -96 -49q-14 31 -23 55q-8 23 -15 40t-5 17l29 18q28 17 74 37.5t104.5 38t119.5 17.5 t116.5 -17.5t98.5 -57.5t69 -106.5t26 -166.5v-173v-128t-1 -94t-1 -72q-2 -63 2 -109.5t8 -78.5q6 -37 10 -66h-129l-6 43q-4 23 -6 53.5t0 75.5q0 2 -18.5 -28.5t-55.5 -68.5t-94.5 -70t-134.5 -32q-78 0 -126 33t-74 79t-35 97t-9 88zM164 1257q0 53 31 91t76 38 q43 0 74.5 -38t31.5 -91t-31.5 -90t-74.5 -37q-45 0 -76 37t-31 90zM258 279q-4 -86 35 -129.5t106 -43.5q33 0 73 15.5t77 41t66.5 62.5t43.5 80q-2 2 -2 33v65v64q0 15 2 29q-45 -2 -83 -7q-35 -4 -72 -9t-62 -9q-25 -6 -56.5 -19.5t-59 -36t-47 -57t-21.5 -79.5z M535 1257q0 53 30.5 91t75.5 38q43 0 75 -38t32 -91t-32 -90t-75 -37q-45 0 -75.5 37t-30.5 90z" />
<glyph unicode="&#xe5;" horiz-adv-x="933" d="M121 270q0 37 13 85t47 94.5t88.5 83t138.5 51.5q31 4 73.5 11t83.5 11q47 6 94 10q-2 12 -2 25v47q0 92 -17 143.5t-46 77t-64.5 31.5t-70.5 6t-80 -16.5t-86 -34.5q-47 -23 -96 -49q-14 31 -23 55q-8 23 -15 40t-5 17l29 18q28 17 74 37.5t104.5 38t119.5 17.5 t116.5 -17.5t98.5 -57.5t69 -106.5t26 -166.5v-173v-128t-1 -94t-1 -72q-2 -63 2 -109.5t8 -78.5q6 -37 10 -66h-129l-6 43q-4 23 -6 53.5t0 75.5q0 2 -18.5 -28.5t-55.5 -68.5t-94.5 -70t-134.5 -32q-78 0 -126 33t-74 79t-35 97t-9 88zM258 279q-4 -86 35 -129.5 t106 -43.5q33 0 73 15.5t77 41t66.5 62.5t43.5 80q-2 2 -2 33v65v64q0 15 2 29q-45 -2 -83 -7q-35 -4 -72 -9t-62 -9q-25 -6 -56.5 -19.5t-59 -36t-47 -57t-21.5 -79.5zM266 1294q0 37 15.5 71t41 58.5t60.5 39t74 14.5t73.5 -14.5t60.5 -39t40 -58.5t14 -71t-14 -69.5 t-40 -57t-60.5 -39t-73.5 -14.5t-74 14.5t-60.5 39t-41 57t-15.5 69.5zM369 1294q0 -41 25.5 -68.5t62.5 -27.5t62.5 27.5t25.5 68.5t-25.5 69t-62.5 28t-62.5 -28t-25.5 -69z" />
<glyph unicode="&#xe6;" horiz-adv-x="1492" d="M80 270q0 37 13 85t47 94.5t88.5 83t138.5 51.5q31 4 73.5 11t83.5 11q47 6 94 10q-2 12 -2 25v47q0 92 -17 143.5t-46 77t-64.5 31.5t-70.5 6t-80 -16.5t-86 -34.5q-47 -23 -96 -49q-14 31 -23 55q-8 23 -15 40t-5 17l29 18q28 17 74 37.5t104.5 38t119.5 17.5 q86 0 160 -35t115 -125q59 88 138.5 123t145.5 35q68 0 133.5 -23.5t116.5 -79t82 -148.5t31 -234v-34t-2 -34h-16q-17 0 -47.5 1t-72.5 1h-89q-96 0 -201 -1t-184 -1v-51q6 -78 31.5 -144.5t65.5 -115.5t92 -78t112 -29q66 0 111.5 9.5t74.5 21.5q35 12 57 31l39 -119 q-35 -18 -78 -31q-39 -12 -92 -21.5t-123 -6.5q-119 4 -215 56t-149 159q0 2 -26.5 -33t-73 -77t-111 -77t-141.5 -35q-78 0 -126 33t-74 79t-35 97t-9 88zM217 279q-4 -86 35 -129.5t106 -43.5q33 0 73 15.5t77 41t66.5 62.5t43.5 80q-2 2 -2 33v65v64q0 15 2 29 q-45 -2 -83 -7q-35 -4 -72 -9t-62 -9q-25 -6 -56.5 -19.5t-59 -36t-47 -57t-21.5 -79.5zM754 633h229h84t72.5 1t42.5 1h30l1 23q1 24 -4 59t-16 74.5t-34.5 74.5t-61.5 58.5t-93 23.5q-41 0 -74 -13t-58.5 -35.5t-44 -51.5t-30.5 -57q-31 -70 -43 -158z" />
<glyph unicode="&#xe7;" d="M147 514q0 170 48.5 277.5t119 168t147.5 82t136 21.5q47 0 86 -9.5t66 -19.5q31 -12 55 -26l-35 -131q-23 18 -47 32q-23 12 -52.5 22.5t-66.5 10.5q-43 0 -98 -16.5t-104.5 -62.5t-83 -128t-33.5 -211t31.5 -213t77.5 -133t98.5 -67.5t93.5 -18.5t74.5 10.5t60.5 22.5 q31 14 57 35l35 -125q-37 -18 -76 -33q-35 -12 -77 -21.5t-85 -9.5q-55 0 -129.5 20.5t-140 80t-112 166t-46.5 276.5zM330 -326l41 107q33 -14 61 -23q25 -10 51.5 -16t44.5 -6q16 0 36 6t20 35q0 14 -5.5 25.5t-23.5 19.5t-53 13t-92 5l67 187h139l-36 -113q8 0 34.5 -4 t55 -19.5t50 -47t21.5 -87.5q0 -63 -60 -107t-163 -34q-23 2 -55.5 12.5t-61.5 20.5q-35 12 -71 26z" />
<glyph unicode="&#xe8;" horiz-adv-x="958" d="M107 530q0 160 39 263.5t96 165t124 85t122 23.5q68 0 133.5 -23.5t116.5 -79t81.5 -148.5t30.5 -234v-34t-2 -34h-16t-47 1t-73 1h-89q-96 0 -201.5 -1t-185.5 -1q0 -86 23.5 -162t63.5 -133t95.5 -90t120.5 -33q66 0 112 9.5t74 21.5q35 12 58 31l39 -119 q-35 -18 -78 -31q-39 -10 -92.5 -19t-122.5 -9q-70 0 -144.5 26.5t-136 89t-101.5 169t-40 265.5zM242 633h229h84t73 1t42 1h31l1 23q1 24 -4 59t-16.5 74.5t-35 74.5t-61.5 58.5t-93 23.5q-41 0 -74 -13t-58.5 -35.5t-44 -51.5t-30.5 -57q-31 -70 -43 -158zM254 1292 l76 131l377 -215l-56 -94z" />
<glyph unicode="&#xe9;" horiz-adv-x="958" d="M107 530q0 160 39 263.5t96 165t124 85t122 23.5q68 0 133.5 -23.5t116.5 -79t81.5 -148.5t30.5 -234v-34t-2 -34h-16t-47 1t-73 1h-89q-96 0 -201.5 -1t-185.5 -1q0 -86 23.5 -162t63.5 -133t95.5 -90t120.5 -33q66 0 112 9.5t74 21.5q35 12 58 31l39 -119 q-35 -18 -78 -31q-39 -10 -92.5 -19t-122.5 -9q-70 0 -144.5 26.5t-136 89t-101.5 169t-40 265.5zM242 633h229h84t73 1t42 1h31l1 23q1 24 -4 59t-16.5 74.5t-35 74.5t-61.5 58.5t-93 23.5q-41 0 -74 -13t-58.5 -35.5t-44 -51.5t-30.5 -57q-31 -70 -43 -158zM254 1208 l377 215l76 -131l-398 -178z" />
<glyph unicode="&#xea;" horiz-adv-x="958" d="M107 530q0 160 39 263.5t96 165t124 85t122 23.5q68 0 133.5 -23.5t116.5 -79t81.5 -148.5t30.5 -234v-34t-2 -34h-16t-47 1t-73 1h-89q-96 0 -201.5 -1t-185.5 -1q0 -86 23.5 -162t63.5 -133t95.5 -90t120.5 -33q66 0 112 9.5t74 21.5q35 12 58 31l39 -119 q-35 -18 -78 -31q-39 -10 -92.5 -19t-122.5 -9q-70 0 -144.5 26.5t-136 89t-101.5 169t-40 265.5zM157 1194l322 211l321 -211l-49 -78l-272 129l-270 -129zM242 633h229h84t73 1t42 1h31l1 23q1 24 -4 59t-16.5 74.5t-35 74.5t-61.5 58.5t-93 23.5q-41 0 -74 -13 t-58.5 -35.5t-44 -51.5t-30.5 -57q-31 -70 -43 -158z" />
<glyph unicode="&#xeb;" horiz-adv-x="958" d="M107 530q0 160 39 263.5t96 165t124 85t122 23.5q68 0 133.5 -23.5t116.5 -79t81.5 -148.5t30.5 -234v-34t-2 -34h-16t-47 1t-73 1h-89q-96 0 -201.5 -1t-185.5 -1q0 -86 23.5 -162t63.5 -133t95.5 -90t120.5 -33q66 0 112 9.5t74 21.5q35 12 58 31l39 -119 q-35 -18 -78 -31q-39 -10 -92.5 -19t-122.5 -9q-70 0 -144.5 26.5t-136 89t-101.5 169t-40 265.5zM186 1257q0 53 31 91t76 38q43 0 74.5 -38t31.5 -91t-31.5 -90t-74.5 -37q-45 0 -76 37t-31 90zM242 633h229h84t73 1t42 1h31l1 23q1 24 -4 59t-16.5 74.5t-35 74.5 t-61.5 58.5t-93 23.5q-41 0 -74 -13t-58.5 -35.5t-44 -51.5t-30.5 -57q-31 -70 -43 -158zM557 1257q0 53 30.5 91t75.5 38q43 0 75 -38t32 -91t-32 -90t-75 -37q-45 0 -75.5 37t-30.5 90z" />
<glyph unicode="&#xec;" horiz-adv-x="559" d="M41 940v117h315v-1057h-127l-4 940h-184zM63 1292l76 131l377 -215l-56 -94z" />
<glyph unicode="&#xed;" horiz-adv-x="559" d="M39 940v117h315v-1057h-127l-4 940h-184zM49 1208l377 215l76 -131l-398 -178z" />
<glyph unicode="&#xee;" horiz-adv-x="559" d="M-23 1194l322 211l321 -211l-49 -78l-272 129l-270 -129zM41 940v117h315v-1057h-127l-4 940h-184z" />
<glyph unicode="&#xef;" horiz-adv-x="559" d="M-6 1257q0 53 31 91t76 38q43 0 74.5 -38t31.5 -91t-31.5 -90t-74.5 -37q-45 0 -76 37t-31 90zM41 940v117h315v-1057h-127l-4 940h-184zM365 1257q0 53 30.5 91t75.5 38q43 0 75 -38t32 -91t-32 -90t-75 -37q-45 0 -75.5 37t-30.5 90z" />
<glyph unicode="&#xf0;" d="M139 467v123h109v348h-107l2 119h365q141 0 227 -37t133 -107.5t62.5 -172t15.5 -232.5t-21.5 -226.5t-73.5 -158t-141 -93t-225 -30.5h-344v121h107v346h-109zM401 121h138q57 0 104 17.5t79 62.5t49 123.5t17 203.5t-17 204t-49 125t-78 63.5t-101 17.5h-142v-348h144 v-123h-144v-346z" />
<glyph unicode="&#xf1;" d="M180 0v1057h129v-170q37 53 84 92q41 35 94.5 62.5t118.5 25.5q131 -4 187.5 -100.5t56.5 -253.5v-90.5t-1 -108.5t-1 -117.5v-117.5v-279h-129v283v115.5t-1 112.5t-1 99v74q0 57 -6 106.5t-19.5 84t-38 55t-63.5 20.5q-66 2 -118 -28.5t-89 -67.5q-43 -43 -76 -100 l2 -754h-129zM194 1180q-2 0 8.5 30.5t35 67.5t63.5 67.5t94 30.5q51 0 83 -21.5t61 -43.5q23 -23 45 -38.5t51 -15.5q23 0 37 19.5t24 44.5q10 29 17 65l120 -36q-14 -59 -38 -107q-23 -41 -60 -73.5t-94 -32.5q-66 0 -98.5 21.5t-59.5 45.5q-20 20 -39.5 34.5t-48.5 14.5 q-23 0 -38 -21.5t-27 -45.5q-14 -29 -25 -66z" />
<glyph unicode="&#xf2;" horiz-adv-x="983" d="M102 524q0 139 32 241.5t86 170.5t126 100.5t152 32.5q86 0 156.5 -36t120.5 -105.5t79 -171t29 -230.5t-32 -232.5t-86 -176t-125 -110.5t-151 -38t-149.5 35t-122.5 103.5t-84 173t-31 243.5zM240 512q0 -129 28.5 -212t67.5 -131t81 -67.5t70 -19.5q37 0 84 22.5 t87 74.5t68 136t28 205t-23.5 203t-59.5 132t-81 71.5t-88 21.5q-51 0 -98.5 -20.5t-84 -69.5t-58 -133t-21.5 -213zM252 1292l76 131l377 -215l-56 -94z" />
<glyph unicode="&#xf3;" horiz-adv-x="983" d="M102 524q0 139 32 241.5t86 170.5t126 100.5t152 32.5q86 0 156.5 -36t120.5 -105.5t79 -171t29 -230.5t-32 -232.5t-86 -176t-125 -110.5t-151 -38t-149.5 35t-122.5 103.5t-84 173t-31 243.5zM240 512q0 -129 28.5 -212t67.5 -131t81 -67.5t70 -19.5q37 0 84 22.5 t87 74.5t68 136t28 205t-23.5 203t-59.5 132t-81 71.5t-88 21.5q-51 0 -98.5 -20.5t-84 -69.5t-58 -133t-21.5 -213zM252 1208l377 215l76 -131l-398 -178z" />
<glyph unicode="&#xf4;" horiz-adv-x="983" d="M102 524q0 139 32 241.5t86 170.5t126 100.5t152 32.5q86 0 156.5 -36t120.5 -105.5t79 -171t29 -230.5t-32 -232.5t-86 -176t-125 -110.5t-151 -38t-149.5 35t-122.5 103.5t-84 173t-31 243.5zM155 1194l322 211l321 -211l-49 -78l-272 129l-270 -129zM240 512 q0 -129 28.5 -212t67.5 -131t81 -67.5t70 -19.5q37 0 84 22.5t87 74.5t68 136t28 205t-23.5 203t-59.5 132t-81 71.5t-88 21.5q-51 0 -98.5 -20.5t-84 -69.5t-58 -133t-21.5 -213z" />
<glyph unicode="&#xf5;" horiz-adv-x="983" d="M102 524q0 139 32 241.5t86 170.5t126 100.5t152 32.5q86 0 156.5 -36t120.5 -105.5t79 -171t29 -230.5t-32 -232.5t-86 -176t-125 -110.5t-151 -38t-149.5 35t-122.5 103.5t-84 173t-31 243.5zM159 1180q-2 0 8.5 30.5t35 67.5t63.5 67.5t94 30.5q51 0 83 -21.5 t61 -43.5q23 -23 45 -38.5t51 -15.5q23 0 37 19.5t24 44.5q10 29 17 65l120 -36q-14 -59 -38 -107q-23 -41 -60 -73.5t-94 -32.5q-66 0 -98.5 21.5t-59.5 45.5q-20 20 -39.5 34.5t-48.5 14.5q-23 0 -38 -21.5t-27 -45.5q-14 -29 -25 -66zM240 512q0 -129 28.5 -212 t67.5 -131t81 -67.5t70 -19.5q37 0 84 22.5t87 74.5t68 136t28 205t-23.5 203t-59.5 132t-81 71.5t-88 21.5q-51 0 -98.5 -20.5t-84 -69.5t-58 -133t-21.5 -213z" />
<glyph unicode="&#xf6;" horiz-adv-x="983" d="M102 524q0 139 32 241.5t86 170.5t126 100.5t152 32.5q86 0 156.5 -36t120.5 -105.5t79 -171t29 -230.5t-32 -232.5t-86 -176t-125 -110.5t-151 -38t-149.5 35t-122.5 103.5t-84 173t-31 243.5zM184 1257q0 53 31 91t76 38q43 0 74.5 -38t31.5 -91t-31.5 -90t-74.5 -37 q-45 0 -76 37t-31 90zM240 512q0 -129 28.5 -212t67.5 -131t81 -67.5t70 -19.5q37 0 84 22.5t87 74.5t68 136t28 205t-23.5 203t-59.5 132t-81 71.5t-88 21.5q-51 0 -98.5 -20.5t-84 -69.5t-58 -133t-21.5 -213zM555 1257q0 53 30.5 91t75.5 38q43 0 75 -38t32 -91t-32 -90 t-75 -37q-45 0 -75.5 37t-30.5 90z" />
<glyph unicode="&#xf7;" horiz-adv-x="1146" d="M25 688v90h1099v-90h-1099zM481 416q0 35 28 59.5t66 24.5q39 0 66 -24.5t27 -59.5t-27 -60.5t-66 -25.5t-66.5 25.5t-27.5 60.5zM481 1047q0 35 28 60.5t66 25.5q39 0 66 -25.5t27 -60.5t-27 -59.5t-66 -24.5t-66.5 24.5t-27.5 59.5z" />
<glyph unicode="&#xf8;" horiz-adv-x="983" d="M106 528q0 137 29 240.5t80 172.5t122 102.5t152 33.5q53 0 102.5 -15t90.5 -42l45 86l115 -66l-64 -114h-2q49 -74 73.5 -174.5t24.5 -223.5q0 -139 -28.5 -242.5t-79.5 -171t-122 -101t-155 -33.5q-119 0 -196 59l-45 -84l-119 63l70 123h2q-47 76 -71 173.5t-24 213.5 zM262 528q0 -129 27 -221l321 586h2q-55 55 -123 55q-98 0 -162.5 -104.5t-64.5 -315.5zM360 168q55 -59 129 -59q100 0 164 103t64 316q0 66 -8.5 125.5t-22.5 106.5l-324 -592h-2z" />
<glyph unicode="&#xf9;" horiz-adv-x="1028" d="M179 340v436q0 135 2 281h129v-287v-116.5v-113t1 -98.5t1 -73q0 -59 5 -107.5t19.5 -83.5t39 -55.5t63.5 -20.5q66 -2 118 29t89 70q43 45 75 102l-2 754h129v-1057h-129v170q-37 -53 -84 -94q-41 -35 -94 -63.5t-119 -26.5q-131 4 -187 100t-56 254zM293 1292l76 131 l377 -215l-56 -94z" />
<glyph unicode="&#xfa;" horiz-adv-x="1028" d="M179 340v436q0 135 2 281h129v-287v-116.5v-113t1 -98.5t1 -73q0 -59 5 -107.5t19.5 -83.5t39 -55.5t63.5 -20.5q66 -2 118 29t89 70q43 45 75 102l-2 754h129v-1057h-129v170q-37 -53 -84 -94q-41 -35 -94 -63.5t-119 -26.5q-131 4 -187 100t-56 254zM293 1208l377 215 l76 -131l-398 -178z" />
<glyph unicode="&#xfb;" horiz-adv-x="1028" d="M179 340v436q0 135 2 281h129v-287v-116.5v-113t1 -98.5t1 -73q0 -59 5 -107.5t19.5 -83.5t39 -55.5t63.5 -20.5q66 -2 118 29t89 70q43 45 75 102l-2 754h129v-1057h-129v170q-37 -53 -84 -94q-41 -35 -94 -63.5t-119 -26.5q-131 4 -187 100t-56 254zM194 1194l322 211 l321 -211l-49 -78l-272 129l-270 -129z" />
<glyph unicode="&#xfc;" horiz-adv-x="1028" d="M179 340v436q0 135 2 281h129v-287v-116.5v-113t1 -98.5t1 -73q0 -59 5 -107.5t19.5 -83.5t39 -55.5t63.5 -20.5q66 -2 118 29t89 70q43 45 75 102l-2 754h129v-1057h-129v170q-37 -53 -84 -94q-41 -35 -94 -63.5t-119 -26.5q-131 4 -187 100t-56 254zM223 1257 q0 53 31 91t76 38q43 0 74.5 -38t31.5 -91t-31.5 -90t-74.5 -37q-45 0 -76 37t-31 90zM594 1257q0 53 30.5 91t75.5 38q43 0 75 -38t32 -91t-32 -90t-75 -37q-45 0 -75.5 37t-30.5 90z" />
<glyph unicode="&#xfd;" horiz-adv-x="864" d="M30 -371l33 117q18 -8 41 -16q18 -6 40 -11.5t44 -3.5q25 2 48.5 14.5t47 44t48 87t51.5 141.5l-15 45q-16 45 -38.5 119t-52 169t-60.5 193l-164 529h141q16 -63 39 -133q16 -59 40 -136t46 -157l123 -426l250 852h141q-96 -309 -176 -561q-35 -109 -67.5 -214.5 t-61.5 -192.5l-49.5 -148.5l-26.5 -79.5q-12 -31 -32.5 -76t-51 -88t-72.5 -74t-98 -31q-35 0 -65.5 5.5t-52.5 13.5q-27 8 -50 18zM233 1208l377 215l76 -131l-398 -178z" />
<glyph unicode="&#xfe;" horiz-adv-x="976" d="M190 0v1061h152v-230h152q78 0 147.5 -15t121.5 -50t83 -90t31 -133t-27 -136.5t-73 -98.5t-107.5 -60.5t-130.5 -20.5h-197v-227h-152zM342 350h195q51 0 85.5 16.5t56 43t30 60.5t8.5 71t-10.5 67.5t-36 54t-69.5 36t-109 12.5h-150v-361z" />
<glyph unicode="&#xff;" horiz-adv-x="864" d="M30 -371l33 117q18 -8 41 -16q18 -6 40 -11.5t44 -3.5q25 2 48.5 14.5t47 44t48 87t51.5 141.5l-15 45q-16 45 -38.5 119t-52 169t-60.5 193l-164 529h141q16 -63 39 -133q16 -59 40 -136t46 -157l123 -426l250 852h141q-96 -309 -176 -561q-35 -109 -67.5 -214.5 t-61.5 -192.5l-49.5 -148.5l-26.5 -79.5q-12 -31 -32.5 -76t-51 -88t-72.5 -74t-98 -31q-35 0 -65.5 5.5t-52.5 13.5q-27 8 -50 18zM166 1257q0 53 31 91t76 38q43 0 74.5 -38t31.5 -91t-31.5 -90t-74.5 -37q-45 0 -76 37t-31 90zM537 1257q0 53 30.5 91t75.5 38 q43 0 75 -38t32 -91t-32 -90t-75 -37q-45 0 -75.5 37t-30.5 90z" />
<glyph unicode="&#x152;" d="M35 678q0 143 18.5 270t62.5 222.5t118.5 149.5t185.5 54q66 0 121 -16h446v-123h-307v-455h266v-121h-266v-536h307v-123h-446q-59 -18 -121 -18q-80 0 -150.5 30.5t-123 108.5t-82 213t-29.5 344zM193 678q0 -182 17 -294t48 -173t73 -81.5t89 -20.5q29 0 56.5 7 t53.5 29h-2q0 268 1 533.5t1 533.5h5q-51 35 -115 35q-66 0 -110 -39t-69.5 -111.5t-36.5 -178t-11 -240.5z" />
<glyph unicode="&#x153;" horiz-adv-x="1615" d="M102 524q0 139 32 241.5t86 170.5t126 100.5t152 32.5q106 0 189 -55.5t132 -161.5q31 61 70 102t82 67t87 36t81 10q68 0 133 -23.5t116.5 -79t82 -148.5t30.5 -234v-34t-2 -34q-45 2 -128 2h-173t-175 -1t-136 -1q0 -86 23.5 -162t63.5 -133t95 -90t121 -33t112 9.5 t74 21.5q35 12 58 31l39 -119q-35 -18 -78 -31q-39 -10 -92.5 -19t-122.5 -9q-47 0 -98.5 11t-98.5 38.5t-90 71.5t-74 110q-53 -117 -140 -179.5t-190 -62.5q-80 0 -149.5 35t-122.5 103.5t-84 173t-31 243.5zM240 512q0 -129 28.5 -212t67.5 -131t81 -67.5t70 -19.5 q37 0 84 22.5t87 74.5t68 136t28 205t-23.5 203t-59.5 132t-81 71.5t-88 21.5q-51 0 -98.5 -20.5t-84 -69.5t-58 -133t-21.5 -213zM893 633h229h84t73 1t42 1h31l1 23q1 24 -4.5 59t-16.5 74.5t-34.5 74.5t-61.5 58.5t-93 23.5q-41 0 -74 -13t-58.5 -35.5t-44 -51.5 t-30.5 -57q-31 -70 -43 -158z" />
<glyph unicode="&#x178;" horiz-adv-x="901" d="M45 1280l141 57l267 -653q70 172 134 329.5t134 329.5l139 -57l-332 -749v-537h-153v537zM164 1556q0 53 31 91t76 38q43 0 74.5 -38t31.5 -91t-31.5 -90t-74.5 -37q-45 0 -76 37t-31 90zM535 1556q0 53 30.5 91t75.5 38q43 0 75 -38t32 -91t-32 -90t-75 -37 q-45 0 -75.5 37t-30.5 90z" />
<glyph unicode="&#x2c6;" d="M188 1194l322 211l321 -211l-49 -78l-272 129l-270 -129z" />
<glyph unicode="&#x2dc;" d="M190 1180q-2 0 8.5 30.5t35 67.5t63.5 67.5t94 30.5q51 0 83 -21.5t61 -43.5q23 -23 45 -38.5t51 -15.5q23 0 37 19.5t24 44.5q10 29 17 65l120 -36q-14 -59 -38 -107q-23 -41 -60 -73.5t-94 -32.5q-66 0 -98.5 21.5t-59.5 45.5q-20 20 -39.5 34.5t-48.5 14.5 q-23 0 -38 -21.5t-27 -45.5q-14 -29 -25 -66z" />
<glyph unicode="&#x2000;" horiz-adv-x="890" />
<glyph unicode="&#x2001;" horiz-adv-x="1780" />
<glyph unicode="&#x2002;" horiz-adv-x="890" />
<glyph unicode="&#x2003;" horiz-adv-x="1780" />
<glyph unicode="&#x2004;" horiz-adv-x="593" />
<glyph unicode="&#x2005;" horiz-adv-x="445" />
<glyph unicode="&#x2006;" horiz-adv-x="296" />
<glyph unicode="&#x2007;" horiz-adv-x="296" />
<glyph unicode="&#x2008;" horiz-adv-x="222" />
<glyph unicode="&#x2009;" horiz-adv-x="356" />
<glyph unicode="&#x200a;" horiz-adv-x="98" />
<glyph unicode="&#x2010;" d="M272 465v129h482v-129h-482z" />
<glyph unicode="&#x2011;" d="M272 465v129h482v-129h-482z" />
<glyph unicode="&#x2012;" d="M272 465v129h482v-129h-482z" />
<glyph unicode="&#x2013;" d="M72 465v129h880v-129h-880z" />
<glyph unicode="&#x2014;" horiz-adv-x="1302" d="M39 465v129h1229v-129h-1229z" />
<glyph unicode="&#x2018;" horiz-adv-x="512" d="M113 954v105q0 76 36.5 136t81.5 101q53 49 119 84l62 -104q-27 -14 -50 -39q-18 -23 -32.5 -56.5t-14.5 -82.5v-144h-202z" />
<glyph unicode="&#x2019;" horiz-adv-x="378" d="M45 1036q25 14 47 39q18 20 33.5 54t15.5 85v144h203v-107q0 -78 -37 -136t-82 -99q-53 -49 -119 -84z" />
<glyph unicode="&#x201a;" d="M332 -23q29 16 51 48q18 27 34.5 70.5t16.5 111.5v98h203q2 -16 3 -30.5t1 -28.5q0 -98 -38 -166t-83 -113q-53 -53 -121 -88z" />
<glyph unicode="&#x201c;" horiz-adv-x="821" d="M23 954v105q0 76 36.5 136t81.5 101q53 49 119 84l62 -104q-27 -14 -50 -39q-18 -23 -32.5 -56.5t-14.5 -82.5v-144h-202zM401 954v105q0 76 37 136t82 101q53 49 119 84l61 -104q-27 -14 -47 -39q-18 -23 -32.5 -56.5t-14.5 -82.5v-144h-205z" />
<glyph unicode="&#x201d;" horiz-adv-x="821" d="M96 1036q25 14 47 39q18 20 34 54t16 85v144h202v-107q0 -78 -36.5 -136t-82.5 -99q-53 -49 -118 -84zM475 1036q25 14 47 39q16 20 31.5 54t15.5 85v93q0 25 2 51h203v-107q0 -78 -37 -136t-82 -99q-53 -49 -118 -84z" />
<glyph unicode="&#x201e;" d="M156 -23q29 16 51 48q18 27 34.5 70.5t16.5 111.5v98h203q2 -16 3 -30.5t1 -28.5q0 -98 -38 -166t-83 -113q-53 -53 -121 -88zM537 -23q29 16 51 48q18 27 34.5 70.5t16.5 111.5v98h203q2 -16 3 -30.5t1 -30.5q0 -96 -38 -165t-83 -114q-53 -53 -121 -86z" />
<glyph unicode="&#x2022;" d="M248 508q0 53 20.5 99t56 81t84 54.5t101.5 19.5q55 0 102 -19.5t83 -54.5t56.5 -81t20.5 -99t-20.5 -99.5t-56.5 -80t-83 -54t-102 -20.5q-53 0 -101.5 20.5t-84 54t-56 80t-20.5 99.5z" />
<glyph unicode="&#x2026;" d="M2 0v293h203v-293h-203zM406 0v293h204v-293h-204zM813 0v293h205v-293h-205z" />
<glyph unicode="&#x202f;" horiz-adv-x="356" />
<glyph unicode="&#x2039;" d="M184 672l529 499l102 -106l-442 -393l442 -398l-102 -106z" />
<glyph unicode="&#x203a;" d="M211 274l442 398l-442 393l102 106l529 -499l-529 -504z" />
<glyph unicode="&#x205f;" horiz-adv-x="445" />
<glyph unicode="&#x20ac;" d="M100 483v123h84q-2 23 -2 52.5v56.5v10h-82v123h88q12 102 41 197.5t78 168t121 115.5t168 43q94 0 160.5 -36t107.5 -76q49 -49 80 -111l-131 -78q-23 49 -53 86q-29 33 -69 60.5t-95 27.5q-98 0 -164.5 -105.5t-85.5 -291.5h436v-123h-440v-59t2 -60h438v-123h-430 q10 -78 27.5 -146.5t46.5 -119.5t71 -81t99 -30q53 0 97 29t75 64q37 41 66 94l129 -86q-39 -63 -93 -115q-47 -43 -114.5 -77.5t-159.5 -34.5q-74 0 -139.5 29.5t-117.5 92t-89 157.5t-55 224h-95z" />
<glyph unicode="&#x2122;" horiz-adv-x="1226" d="M33 1294v80h483v-80h-190v-493h-99v493h-194zM569 801v573h154l158 -407l161 407h152v-573h-98v471q-45 -119 -91.5 -235.5t-91.5 -235.5h-69l-176 473v-473h-99z" />
<glyph unicode="&#x25fc;" horiz-adv-x="1054" d="M0 0v1055h1055v-1055h-1055z" />
<glyph unicode="&#xfb01;" horiz-adv-x="1204" d="M35 930v127h221q0 82 9 152.5t36 121.5t76 80t129 27q35 -2 70.5 -8.5t64.5 -14.5q33 -8 64 -20l-31 -111q-27 10 -56 19q-25 8 -54 14t-58 6q-43 0 -67.5 -18.5t-37 -52t-15.5 -84t-3 -111.5h616v-1057h-127l-4 930h-485v-930h-127v930h-221zM842 1337q0 41 29.5 71 t70.5 30t70.5 -30t29.5 -71t-29.5 -70.5t-70.5 -29.5t-70.5 29.5t-29.5 70.5z" />
<glyph unicode="&#xfb02;" horiz-adv-x="1263" d="M35 930v125h221q0 82 9 153.5t36 122.5t76 80t129 27q35 -2 70.5 -8.5t64.5 -14.5q33 -8 64 -20l-31 -111q-27 10 -56 19q-25 8 -54 14t-58 6q-43 0 -67.5 -18.5t-37 -53t-15.5 -85t-3 -111.5h291v-125h-291v-930h-127v930h-221zM899 225v97.5v154.5v191.5t1 207t1 199.5 v170v119v45h19q10 0 21 1t24 1h65q-2 -307 -2 -555v-629q0 -76 36 -105.5t101 -0.5q10 -25 20.5 -43.5t16.5 -32.5q8 -16 12 -27q-14 -10 -36 -18q-18 -8 -44 -13t-57 -5t-62.5 15t-57 46t-42 77t-16.5 105z" />
</font>
</defs>
</svg>
